<?xml version="1.0" standalone="no"?>
<!DOCTYPE svg PUBLIC "-//W3C//DTD SVG 1.1//EN" "http://www.w3.org/Graphics/SVG/1.1/DTD/svg11.dtd" >
<svg>
<metadata>
Created by FontForge 20090914 at Sun Aug 23 16:15:19 2020
 By www-data
&#194;&#169;2018 Eva Barabasne Olasz
</metadata>
<defs>
<font id="Amagh-Demo" horiz-adv-x="135" >
  <font-face 
    font-family="Amagh"
    font-weight="400"
    font-stretch="normal"
    units-per-em="2048"
    panose-1="0 0 0 0 0 0 0 0 0 0"
    ascent="1556"
    descent="-492"
    x-height="350.5"
    cap-height="1318.5"
    bbox="-7.72158 -778.521 1416.29 1511.28"
    underline-thickness="109"
    underline-position="-167"
    unicode-range="U+0020-U+007A"
  />
<missing-glyph horiz-adv-x="1240" 
d="M100 -360v1804h1026v-1804h-1026zM217 -248h795v1577h-795v-1577z" />
    <glyph glyph-name=".notdef" horiz-adv-x="1240" 
d="M100 -360v1804h1026v-1804h-1026zM217 -248h795v1577h-795v-1577z" />
    <glyph glyph-name="space" unicode=" " horiz-adv-x="310" 
 />
    <glyph glyph-name="A" unicode="A" horiz-adv-x="1310" 
d="M791 925c-12 -2 -22.999 -1.33398 -32.999 1.99902s-16.333 9.33301 -19 18c-47.333 132 -97.833 200.833 -151.5 206.5s-105.334 -21.833 -155.001 -82.5s-94 -139.5 -133 -236.5s-67.5 -182.167 -85.5 -255.5c-18 -69.333 -27.667 -132.833 -29 -190.5
s3.5 -108.5 14.5 -152.5s27.5 -80.333 49.5 -109s47.667 -48 77 -58c31.333 -12 72.666 7.33301 123.999 58s102 111.5 152 182.5s94 141.833 132 212.5s59.333 120.334 64 149.001c-3.33301 52 -6.16602 99.167 -8.49902 141.5s-1.83301 80.5 1.5 114.5zM553.001 1213
c22.667 2.66699 44.668 1.99902 66.001 -2.00098s42 -13.167 62 -27.5s39.667 -35.333 59 -63s38.666 -63.834 57.999 -108.501c6 68 22.667 116.5 50 145.5s56 43.333 86 43s56.333 -13.166 79 -38.499s32.334 -58.666 29.001 -99.999c-10 -108 -23.333 -196.333 -40 -265
s-29.667 -126.667 -39 -174c-6 -28.667 -14.5 -75.334 -25.5 -140.001s-20.167 -130.5 -27.5 -197.5s-10.5 -127 -9.5 -180s10.5 -81.833 28.5 -86.5c8.66699 -3.33301 19.667 -1.33301 33 6s30.833 23 52.5 47s48.167 57.833 79.5 101.5s69 100.5 113 170.5
c9.33301 17.333 20.166 28.166 32.499 32.499s23 4.5 32 0.5s15 -11.5 18 -22.5s-0.5 -23.5 -10.5 -37.5c-138.667 -192.667 -244.334 -316.667 -317.001 -372s-131 -56.666 -175 -3.99902s-41 228.334 9 527.001c-38 -69.333 -78.833 -135 -122.5 -197
s-87.5 -115.167 -131.5 -159.5s-87.167 -77.333 -129.5 -99s-81.5 -27.5 -117.5 -17.5c-146 42 -236 126.333 -270 253s-31 259 9 397s107.833 263.333 203.5 376s200.834 176.667 315.501 192zM864.002 845.998c0 8 1.50098 20.666 4.50098 37.999s5.66699 35.666 8 54.999
s3.66602 37.5 3.99902 54.5s-2.5 28.833 -8.5 35.5c-7.33301 -10 -11.833 -23.667 -13.5 -41s-2.16699 -35.166 -1.5 -53.499s2 -35.666 4 -51.999s3 -28.5 3 -36.5z" />
    <glyph glyph-name="B" unicode="B" horiz-adv-x="1232" 
d="M443 555l-3.00098 -54.999c-1.33301 -24 -3 -48.5 -5 -73.5s-3.66699 -48 -5 -69s-2 -35.167 -2 -42.5c74.667 3.33301 146.834 1.66602 216.501 -5.00098s125.5 -13.667 167.5 -21c15.333 32 28 66 38 102s14 71 12 105s-12 65.833 -30 95.5s-47 54.167 -87 73.5
c-48 -38 -97.333 -65.333 -148 -82s-102 -26 -154 -28zM276.999 309.001c0 8 0.828125 22.8311 2.49512 44.498l5.5 71.5c2 26 3.83301 51.167 5.5 75.5s2.83398 42.833 3.50098 55.5c-56 4 -103.833 14.667 -143.5 32s-63.167 36.666 -70.5 57.999s5.5 42.166 38.5 62.499
s94.167 35.833 183.5 46.5c2 82 3.66699 156.5 5 223.5s2 114.167 2 141.5c0 4 4.83301 7.83301 14.5 11.5s20.834 7.16699 33.501 10.5s25.167 6 37.5 8s20.833 3 25.5 3c12 0 21.5 -3.5 28.5 -10.5s10.5 -14.5 10.5 -22.5c0 -27.333 -0.833008 -73.666 -2.5 -138.999
l-5.5 -219c10.667 0 22.834 0.5 36.501 1.5s26.834 1.5 39.501 1.5c45.333 1.33301 82.666 0.166016 111.999 -3.50098s58.333 -9.5 87 -17.5c50 50.667 79.833 119.334 89.5 206.001s-3.5 162.334 -39.5 227.001s-95.833 104.334 -179.5 119.001
s-193.834 -24.333 -330.501 -117c-25.333 -17.333 -53.666 -39.833 -84.999 -67.5s-56 -55 -74 -82s-24.333 -51 -19 -72s32.666 -33.5 81.999 -37.5c11.333 -1.33301 19.666 -5.83301 24.999 -13.5s7.66602 -15.5 6.99902 -23.5s-4.5 -15.333 -11.5 -22
s-16.833 -9.33398 -29.5 -8.00098c-102.667 22 -155.834 60 -159.501 114s21.333 110.5 75 169.5s125.834 113.5 216.501 163.5s179.667 82 267 96c147.333 22 252.333 3.83301 315 -54.5s97.834 -129.5 105.501 -213.5s-4.83301 -166.833 -37.5 -248.5
s-71 -134.5 -115 -158.5c61.333 -13.333 108 -36.666 140 -69.999s53.167 -71 63.5 -113s11.833 -85.833 4.5 -131.5s-20 -87.167 -38 -124.5c88 -19.333 137.833 -37.833 149.5 -55.5s7.66699 -30.5 -12 -38.5s-43.5 -9.83301 -71.5 -5.5s-37.667 18.5 -29 42.5
c-9.33301 0 -19.833 0.666992 -31.5 2s-23.5 2 -35.5 2c-44 -72.667 -108.667 -138.667 -194 -198s-174.666 -100 -267.999 -122s-182.166 -19.833 -266.499 6.5s-147.166 89.833 -188.499 190.5c-14 32 -17.5 59.833 -10.5 83.5s21.333 43.5 43 59.5
s49.334 28.833 83.001 38.5s70.5 16.834 110.5 21.501zM449.994 697.999c-1.33301 -24.667 -2.33203 -49.333 -2.99902 -74c16 0.666992 34.167 2.33398 54.5 5.00098s39.833 6.66699 58.5 12c21.333 6 38.166 13.333 50.499 22s28.5 18 48.5 28
c-59.333 11.333 -129 13.666 -209 6.99902zM421.995 248c-4.66699 -40 -9.99805 -74 -15.998 -102s-12.667 -47 -20 -57c-4 -4.66699 -12 -8.33398 -24 -11.001s-25 -4.33398 -39 -5.00098s-27 -0.5 -39 0.5s-20 3.5 -24 7.5c-9.33301 4.66699 -15.5 11.167 -18.5 19.5
s-1.83301 16.833 3.5 25.5c4.66699 6 9 19 13 39s8 45.667 12 77c-52.667 -6 -94.334 -18 -125.001 -36s-38.667 -44.667 -24 -80c32 -77.333 75.5 -126.666 130.5 -147.999s112.667 -25 173 -11s119.166 41 176.499 81s104 84 140 132
c13.333 16.667 24.333 33.334 33 50.001c-16 1.33301 -36.833 3.33301 -62.5 6s-54.167 5 -85.5 7s-64.5 3.66699 -99.5 5s-69.833 1.33301 -104.5 0zM296.997 626l2.00098 63.998c-30 -4 -56.5 -8.83301 -79.5 -14.5s-39.5 -11.5 -49.5 -17.5
c-3.33301 -1.33301 6.66699 -6.16602 30 -14.499s55.666 -14.166 96.999 -17.499z" />
    <glyph glyph-name="C" unicode="C" horiz-adv-x="1014" 
d="M334 1156c11.333 -4 18.6709 -9.99707 22.0039 -17.9971s3.5 -16 0.5 -24s-8.66699 -14.667 -17 -20s-18.166 -6 -29.499 -2c-40 10 -69.667 8.66699 -89 -4s-31.333 -31 -36 -55s-3.66699 -51 3 -81s16 -57 28 -81c82 88 176.667 151.5 284 190.5
s202.666 56.667 285.999 53s142.333 -26.5 177 -68.5s20 -100 -44 -174c-70.667 -82 -139.334 -142.167 -206.001 -180.5s-128 -62.166 -184 -71.499s-105.833 -7.5 -149.5 5.5s-77.834 30.5 -102.501 52.5c-54 -88.667 -83.833 -184.834 -89.5 -288.501
s8.5 -194.667 42.5 -273s85.833 -134.333 155.5 -168s152.5 -25.5 248.5 24.5c44.667 24 90 62.833 136 116.5s91 125.5 135 215.5c4.66699 10 12.5 16.667 23.5 20s21.5 3.83301 31.5 1.5s18.167 -7.33301 24.5 -15s7.16602 -16.5 2.49902 -26.5
c-50 -104.667 -104.333 -190.334 -163 -257.001s-116 -111 -172 -133c-144 -54 -267.333 -60.667 -370 -20s-177.834 109 -225.501 205s-64.667 209.667 -51 341s65.5 260 155.5 386c-26.667 44.667 -44 91.167 -52 139.5s-5.33301 90.666 8 126.999
s37.833 63.166 73.5 80.499s83.5 18 143.5 2zM320.005 737.003c57.333 -43.333 121.335 -57.5 192.002 -42.5s136 42.167 196 81.5s108.667 82.5 146 129.5s51.333 81.167 42 102.5c-10 21.333 -36.167 30.833 -78.5 28.5s-91.833 -15.5 -148.5 -39.5
s-116.334 -58 -179.001 -102s-119.334 -96.667 -170.001 -158z" />
    <glyph glyph-name="D" unicode="D" horiz-adv-x="1174" 
d="M500 436c0 -24 -1.33398 -56.3301 -4.00098 -96.9971s-5.83398 -81.167 -9.50098 -121.5s-7.5 -76.666 -11.5 -108.999s-7.66699 -52.5 -11 -60.5c-4 -15.333 -12.167 -28 -24.5 -38s-26.166 -18.167 -41.499 -24.5s-30.833 -10.833 -46.5 -13.5s-28.5 -4 -38.5 -4
c-14.667 2.66699 -29.334 13 -44.001 31c-8 8 -10.667 16.167 -8 24.5s8.66699 15.166 18 20.499c6.66699 6 14.334 8.33301 23.001 7s16.667 -4.33301 24 -9c-5.33301 5.33301 -6.33301 11.666 -3 18.999c2 8 4.66699 27.333 8 58s6.33301 65.167 9 103.5
s5.16699 76.666 7.5 114.999s3.83301 69.166 4.5 92.499c-48 -8 -95.167 -25.5 -141.5 -52.5s-80.166 -65.5 -101.499 -115.5c-42 -122 -48.5 -211.5 -19.5 -268.5s75.5 -88.5 139.5 -94.5s137.167 9.66699 219.5 47s156.5 90 222.5 158c28 30.667 56.333 68.667 85 114
s51.334 89 68.001 131c-50 29.333 -100.333 50.833 -151 64.5s-108.334 21.167 -173.001 22.5zM351.999 499.003c-0.666992 51.333 -2.00195 104.17 -4.00195 158.503s-4 104.833 -6 151.5s-4.5 87 -7.5 121s-5.83301 56.667 -8.5 68c-5.33301 8 -4.83301 15.667 1.5 23
s14.166 13.666 23.499 18.999c4 0 12.667 0.666992 26 2s27.166 2 41.499 2s27.833 -0.5 40.5 -1.5s20.334 -3.5 23.001 -7.5c4 -12 7 -36.5 9 -73.5s3.66699 -80.5 5 -130.5s2.33301 -104 3 -162l2 -167c68 -2 128.667 -9.33301 182 -22s108 -34 164 -64
c26 90 28 185.5 6 286.5s-58 190.833 -108 269.5s-109.333 138.5 -178 179.5s-136 47.167 -202 18.5c-56 -25.333 -107.833 -72.5 -155.5 -141.5s-81.5 -136 -101.5 -201s-21.333 -115.667 -4 -152s63 -34.5 137 5.5c10 4.66699 19.833 5.16699 29.5 1.5
s17 -9.33398 22 -17.001s6.83301 -15.834 5.5 -24.501s-7.66602 -15.334 -18.999 -20.001c-103.333 -54 -174.833 -58.5 -214.5 -13.5s-54 108.167 -43 189.5s44.167 165.333 99.5 252s126.333 145.334 213 176.001c128 44.667 240.333 43 337 -5s174 -120 232 -216
s94.833 -205 110.5 -327s7.16699 -234.667 -25.5 -338c50 -34 85.833 -66.333 107.5 -97s33.834 -57.167 36.501 -79.5s-1.83301 -39.333 -13.5 -51s-25.5 -14.834 -41.5 -9.50098c-17.333 4.66699 -25.333 10.667 -24 18s2 17.333 2 30s-5.16699 28.834 -15.5 48.501
s-35.5 44.5 -75.5 74.5c-60.667 -138 -154 -245 -280 -321s-246.667 -116 -362 -120s-206.166 30.167 -272.499 102.5s-70.5 188.5 -12.5 348.5c12 34 29.167 63.5 51.5 88.5s47.5 46.333 75.5 64s58.333 31.667 91 42s65 17.5 97 21.5z" />
    <glyph glyph-name="E" unicode="E" horiz-adv-x="1025" 
d="M488 905c44.667 -4 94.498 -1.83301 149.498 6.5s101.5 22.5 139.5 42.5s60.5 46.333 67.5 79s-14.833 71.667 -65.5 117c-42 36 -79.667 49.833 -113 41.5s-62.166 -28.333 -86.499 -60s-44.166 -69.167 -59.499 -112.5s-26 -81.333 -32 -114zM534.998 633
c21.333 -18.667 53.667 -24.167 97 -16.5s91 26.5 143 56.5c13.333 8 24.5 16.5 33.5 25.5s12.167 14.5 9.5 16.5c-4.66699 4.66699 -18.667 4.5 -42 -0.5s-50 -12.333 -80 -22s-59.833 -20 -89.5 -31s-53.5 -20.5 -71.5 -28.5zM746.999 31
c29.333 33.333 60.666 71.332 93.999 113.999s65.666 96 96.999 160c4.66699 10 11.834 16.5 21.501 19.5s18.834 3.33301 27.501 1s15.5 -7.33301 20.5 -15s5.16699 -16.5 0.5 -26.5c-25.333 -52.667 -50.166 -97.834 -74.499 -135.501s-48 -70 -71 -97
s-45.167 -49.833 -66.5 -68.5l-60 -52l-35 -27c-32 -17.333 -71.5 -30.5 -118.5 -39.5s-95.167 -14 -144.5 -15s-96.5 2.16699 -141.5 9.5s-81.5 19 -109.5 35c-101.333 56.667 -160.333 121.167 -177 193.5s-8.66699 144.5 24 216.5s82 139.667 148 203
s131.333 114 196 152c-22.667 28 -40.334 57.667 -53.001 89s-17.334 64 -14.001 98c-22 2 -47.833 12.833 -77.5 32.5s-53.5 45.667 -71.5 78s-25.167 70.166 -21.5 113.499s28.5 89.666 74.5 138.999c8 8 16.833 11.833 26.5 11.5s18.167 -3.16602 25.5 -8.49902
s12 -12 14 -20s-1 -16 -9 -24c-32.667 -36 -50.834 -68.667 -54.501 -98s0 -55 11 -77s26 -40 45 -54s34.5 -23 46.5 -27c22 188 88.667 296 200 324s207.833 17.833 289.5 -30.5s118.334 -113.666 110.001 -195.999s-121.5 -139.5 -339.5 -171.5h-97
c-1.33301 -54.667 4.66699 -103.334 18 -146.001c78 39.333 146.667 64.333 206 75s105 11.5 137 2.5s47.833 -25.833 47.5 -50.5s-21.166 -52.667 -62.499 -84c-86.667 -63.333 -159.334 -95.166 -218.001 -95.499s-106 19.5 -142 59.5c-54 -32.667 -106.5 -76 -157.5 -130
s-87.5 -112 -109.5 -174s-23.333 -123.833 -4 -185.5s72 -116.834 158 -165.501c18.667 -10.667 45 -17.167 79 -19.5s70 -0.166016 108 6.50098s75.333 18.334 112 35.001s67.334 38.334 92.001 65.001z" />
    <glyph glyph-name="F" unicode="F" horiz-adv-x="1363" 
d="M437 1189c11.333 2 21.0039 0.167969 29.0039 -5.49902s13 -12.5 15 -20.5s0.833008 -16.167 -3.5 -24.5s-12.833 -13.833 -25.5 -16.5c-88.667 -16 -169.667 -42.167 -243 -78.5s-116.666 -71.166 -129.999 -104.499s14.334 -58.833 83.001 -76.5s201 -15.5 397 6.5
c54.667 137.333 157.5 218 308.5 242s272.167 19.5 363.5 -13.5s113.5 -80.333 66.5 -142s-241.167 -109.167 -582.5 -142.5c-2.66699 -14 -4.16699 -31.333 -4.5 -52s0.333984 -42.5 2.00098 -65.5s3.5 -46 5.5 -69s4 -43.833 6 -62.5l77.5 7.5c31 3 60.833 5.5 89.5 7.5
s53.334 2.83301 74.001 2.5s31 -2.5 31 -6.5c11.333 10 23.5 13.167 36.5 9.5s21.833 -10 26.5 -19s3 -18.667 -5 -29s-27.333 -16.5 -58 -18.5c-24 -2 -60.5 -4.16699 -109.5 -6.5s-99.833 -5.83301 -152.5 -10.5c8 -58.667 19.833 -115.167 35.5 -169.5
s25.5 -107.333 29.5 -159s-2.5 -101.834 -19.5 -150.501s-54.167 -97.334 -111.5 -146.001c-60 -50 -127.167 -80.667 -201.5 -92s-144.333 -8.66602 -210 8.00098s-121.334 44.667 -167.001 84s-70.167 84.333 -73.5 135c-3.33301 36.667 2.16699 73.334 16.5 110.001
s52.5 67.334 114.5 92.001c43.333 16.667 87.666 18.334 132.999 5.00098s84.166 -32.5 116.499 -57.5s54.5 -51.167 66.5 -78.5s6 -47 -18 -59c-17.333 -8.66699 -29.5 -10.667 -36.5 -6s-14.5 13 -22.5 25s-19.333 26.667 -34 44s-38 34.666 -70 51.999
c-28 13.333 -55.333 17.833 -82 13.5s-49.334 -14.666 -68.001 -30.999s-31.834 -37.5 -39.501 -63.5s-5.83398 -54 5.49902 -84c20 -50.667 65 -84.5 135 -101.5s139 -13.333 207 11s122 71.166 162 140.499s40.333 165.333 1 288c-7.33301 21.333 -13 39.5 -17 54.5
s-7.16699 28.833 -9.5 41.5s-4.33301 25.5 -6 38.5s-3.5 28.5 -5.5 46.5c-54.667 -5.33301 -102.667 -11.5 -144 -18.5s-63.333 -14.5 -66 -22.5c0 -1.33301 6.66699 -2.5 20 -3.5s28 -3.5 44 -7.5s29.667 -10 41 -18s15 -19 11 -33c-6 -16 -20.333 -23.333 -43 -22
s-45.834 7.16602 -69.501 17.499s-43.667 23.666 -60 39.999s-21.5 32.166 -15.5 47.499c3.33301 10 13.166 19.167 29.499 27.5s36.833 15.833 61.5 22.5s52.667 12.667 84 18s64 10.333 98 15c-2 18.667 -4 39.5 -6 62.5s-3.83301 46 -5.5 69s-2.5 44.833 -2.5 65.5
s1.33301 38 4 52c-206.667 -22 -351 -18.5 -433 10.5s-119.167 67.5 -111.5 115.5s52 97.667 133 149s181.833 88 302.5 110zM731.004 884.001c184 20.667 316.833 41.335 398.5 62.002s110.5 48 86.5 82c-16.667 22 -48.334 33.333 -95.001 34s-96.167 -6.33301 -148.5 -21
s-101.666 -35.834 -147.999 -63.501s-77.5 -58.834 -93.5 -93.501z" />
    <glyph glyph-name="G" unicode="G" horiz-adv-x="1088" 
d="M288 1317c11.333 0 20.0039 -3.66895 26.0039 -11.002s9 -15 9 -23s-3 -15.333 -9 -22s-14.667 -10 -26 -10c-78.667 0 -133.667 -7.66699 -165 -23s-46.666 -34 -45.999 -56s13.334 -45.167 38.001 -69.5s54 -45.833 88 -64.5c62 76 137.167 137 225.5 183
s170.666 74.833 246.999 86.5s137.5 4.33398 183.5 -21.999s57 -73.5 33 -141.5c-24 -74 -59.167 -132.167 -105.5 -174.5s-97.5 -71.5 -153.5 -87.5s-114.167 -21 -174.5 -15s-116.5 20 -168.5 42c-56 -85.333 -73.333 -158.5 -52 -219.5s59.166 -110.333 113.499 -148
s114 -63.5 179 -77.5s112.833 -16.333 143.5 -7c12.667 230 48.5 369.833 107.5 419.5s110.167 51.334 153.5 5.00098s63.5 -119.833 60.5 -220.5s-60.167 -186.667 -171.5 -258v-48.5v-50.5c52 -21.333 97.167 -48 135.5 -80s66.833 -63 85.5 -93s26.167 -56.333 22.5 -79
s-21.5 -35 -53.5 -37c-20 0 -32.5 8.33301 -37.5 25s-0.5 29.334 13.5 38.001c-14 29.333 -36.833 57.5 -68.5 84.5s-64.167 48.833 -97.5 65.5c0 -62.667 1.83301 -135.334 5.5 -218.001s-2.5 -161.334 -18.5 -236.001s-47.333 -138.167 -94 -190.5
s-120.334 -79.5 -221.001 -81.5c-92.667 -2 -183.334 34.333 -272.001 109s-146 160.167 -172 256.5s-5.83301 189.833 60.5 280.5s208.833 151.334 427.5 182.001c21.333 1.33301 42.666 1.83301 63.999 1.5s43 -2.83301 65 -7.5v31.5v29.5
c-110 -8 -210.833 0.5 -302.5 25.5s-163.834 63.5 -216.501 115.5s-80.667 116.833 -84 194.5s28 165.5 94 263.5c-54 30 -95.333 64.167 -124 102.5s-40.167 74.5 -34.5 108.5s31.167 62.833 76.5 86.5s115.333 35.5 210 35.5zM333.004 963.998
c94.667 -36.667 176 -44.334 244 -23.001s122.333 52.833 163 94.5s67.5 83.5 80.5 125.5s11.833 65.333 -3.5 70c-28 6.66699 -64.333 1.83398 -109 -14.499s-91 -38.5 -139 -66.5s-93.333 -59 -136 -93s-76 -65 -100 -93zM669.004 -68.002
c-4.66699 121.333 -6.33496 229.66 -5.00195 324.993c-41.333 8.66699 -95.166 8.33398 -161.499 -0.999023s-129.666 -28.166 -189.999 -56.499s-110.333 -66.666 -150 -114.999s-53.5 -107.166 -41.5 -176.499c12.667 -70.667 49.5 -138.667 110.5 -204
s125 -107.166 192 -125.499s126.167 -3.16602 177.5 45.501s74 151.334 68 308.001zM822.003 479.992c23.333 16 42.166 39.665 56.499 70.998s24.333 62.5 30 93.5s6.83398 58.333 3.50098 82s-10.666 35.834 -21.999 36.501c-14.667 2.66699 -26.5 -8.16602 -35.5 -32.499
s-15.833 -53 -20.5 -86s-7.83398 -65.667 -9.50098 -98s-2.5 -54.5 -2.5 -66.5z" />
    <glyph glyph-name="H" unicode="H" horiz-adv-x="1307" 
d="M323 1332c11.333 0 19.8281 -3.67285 25.4951 -11.0059s8.5 -15 8.5 -23s-3.16699 -15.333 -9.5 -22s-15.833 -10 -28.5 -10c-76.667 2 -119.667 -9.83301 -129 -35.5s-0.5 -55.667 26.5 -90s64.5 -68.166 112.5 -101.499s91 -56.666 129 -69.999
c18 107.333 44.167 192 78.5 254s69.5 103 105.5 123s69.5 20.167 100.5 0.5s51.5 -57.5 61.5 -113.5c19.333 -128 8.83301 -219.667 -31.5 -275s-99.833 -79.666 -178.5 -72.999c0 -18.667 -0.833008 -36.667 -2.5 -54s-2.5 -34 -2.5 -50c0 -22 0.166992 -53.333 0.5 -94
s-0.833984 -91 -3.50098 -151c28 4 49.833 7.66699 65.5 11s29.5 7 41.5 11l40 13c14.667 4.66699 35.334 10.334 62.001 17.001c-11.333 157.333 -2 290.166 28 398.499s68.333 188.833 115 241.5s95.5 76 146.5 70s92.167 -45 123.5 -117
c42.667 -102.667 65.5 -190.167 68.5 -262.5s-9 -133.5 -36 -183.5s-66.5 -90.333 -118.5 -121s-112 -56 -180 -76l19 -179c6.66699 -61.333 16.667 -123.5 30 -186.5s31 -126.5 53 -190.5s51 -128 87 -192c18 -31.333 18.333 -52.333 1 -63s-38.833 -15 -64.5 -13
s-48.5 9 -68.5 21s-24 25 -12 39c-36 64 -64.833 127.833 -86.5 191.5s-38.5 126.834 -50.5 189.501s-21 124.667 -27 186l-18 180c-29.333 -6.66699 -51.666 -12.667 -66.999 -18s-29.333 -10 -42 -14s-26.834 -7.83301 -42.501 -11.5s-38.167 -7.5 -67.5 -11.5
c-4 -73.333 -6.33301 -148.166 -7 -224.499s-7.66699 -147.833 -21 -214.5s-36.666 -126 -69.999 -178s-85 -90 -155 -114c-36 -12 -76.333 0 -121 36s-93.334 108 -146.001 216c-47.333 96.667 -69.333 176.5 -66 239.5s24.333 114.5 63 154.5s91.334 70.667 158.001 92
s139 39 217 53c2.66699 60 4.33398 112 5.00098 156s1 77 1 99c0 38.667 2.66699 77.334 8 116.001c-72.667 21.333 -139.167 56.5 -199.5 105.5s-102.166 98.5 -125.499 148.5s-21.666 93.333 5.00098 130s90.334 53.667 191.001 51zM603.995 951.994
c44.667 -4 76.833 8.16699 96.5 36.5s31.5 61.5 35.5 99.5s2.66699 76.167 -4 114.5s-13 66.166 -19 83.499c-12 -15.333 -23.667 -36.166 -35 -62.499s-21.833 -55.166 -31.5 -86.499s-18.167 -63.333 -25.5 -96s-13 -62.334 -17 -89.001zM303.994 -205.006
c22 10 41 37.165 57 81.498s29.167 97.833 39.5 160.5s18.5 131 24.5 205s10.333 145 13 213c-66 -11.333 -126.5 -25.666 -181.5 -42.999s-98.5 -42 -130.5 -74s-49 -74.167 -51 -126.5s17 -119.166 57 -200.499c42 -86 77 -145 105 -177s50.333 -45 67 -39z
M935.994 606.992c54.667 15.333 102.835 36.167 144.502 62.5s72.667 61 93 104s28.333 95.667 24 158s-24.833 136.833 -61.5 223.5c-18 42.667 -35.333 66 -52 70s-32 -2.83301 -46 -20.5s-26.333 -41.5 -37 -71.5s-19 -57 -25 -81
c-16.667 -56.667 -28.834 -123 -36.501 -199s-8.83398 -158 -3.50098 -246z" />
    <glyph glyph-name="I" unicode="I" horiz-adv-x="879" 
d="M160 1199c4 10 10.832 16.4971 20.499 19.4971s19.167 3.33301 28.5 1s17 -7.33301 23 -15s7.33301 -16.5 4 -26.5c-26.667 -72 -37.667 -124.667 -33 -158s20 -53 46 -59s59.833 -0.666992 101.5 16s86.167 39.334 133.5 68.001c3.33301 35.333 12.333 67 27 95
s32 52.333 52 73s40.667 37.834 62 51.501s40.666 23.834 57.999 30.501c62.667 28 107 35.833 133 23.5s36 -35.333 30 -69s-26.667 -73 -62 -118s-83 -86.167 -143 -123.5c-2.66699 -78 -2 -177.667 2 -299s4.66699 -241.666 2 -360.999s-12 -225.833 -28 -319.5
s-45.333 -152.167 -88 -175.5c-19.333 -10 -46.333 -17.5 -81 -22.5s-73 -3.5 -115 4.5s-84.833 24.5 -128.5 49.5s-84.5 61.833 -122.5 110.5c-80 102 -106.5 206 -79.5 312s71.833 180.833 134.5 224.5s125 39.334 187 -12.999s88 -185.833 78 -400.5
c0 -11.333 -4.16699 -19.666 -12.5 -24.999s-17.166 -8 -26.499 -8s-17.666 3.16699 -24.999 9.5s-10 15.5 -8 27.5c8 183.333 -8.16699 295.833 -48.5 337.5s-80.5 43.5 -120.5 5.5s-67.333 -100.833 -82 -188.5s7.33301 -169.167 66 -244.5
c30.667 -39.333 59.5 -68.833 86.5 -88.5s51.5 -32.834 73.5 -39.501s41.667 -8.5 59 -5.5s31.666 7.5 42.999 13.5c30.667 19.333 51.334 71.666 62.001 156.999s16.5 182.666 17.5 291.999s-0.5 219.333 -4.5 330s-5 200.667 -3 270c-60 -32 -115.833 -52.5 -167.5 -61.5
s-93.5 -4.5 -125.5 13.5s-51.667 50.167 -59 96.5s3.66699 109.5 33 189.5zM644.999 1095c12.667 8.66699 30.501 26.168 53.501 52.501s41.5 50.5 55.5 72.5s18.333 36.667 13 44s-30 -3.33398 -74 -32.001c-12 -8.66699 -21.833 -23.667 -29.5 -45
s-13.834 -52 -18.501 -92z" />
    <glyph glyph-name="J" unicode="J" horiz-adv-x="945" 
d="M414 705c10 -5.33301 15.4961 -12.3359 16.4961 -21.0029s-1.16699 -16.667 -6.5 -24s-12.833 -12.333 -22.5 -15s-19.5 -0.666992 -29.5 6c-110 60 -172.333 118.667 -187 176s-2.33398 111.833 36.999 163.5s95 99.5 167 143.5s139 82.333 201 115
c6 28.667 17.667 54.334 35 77.001s36.5 41.5 57.5 56.5s42.333 26 64 33s40.5 9.5 56.5 7.5c45.333 -5.33301 78 -13.666 98 -24.999s27.667 -27.666 23 -48.999c-3.33301 -22 -23.166 -44.667 -59.499 -68s-79.166 -48.333 -128.499 -75
c-8.66699 -45.333 -16.5 -100.666 -23.5 -165.999s-13.5 -133.333 -19.5 -204s-11.667 -140.667 -17 -210l-14 -183c78 2 133.833 -11.5 167.5 -40.5s53 -60.667 58 -95s-0.5 -64.833 -16.5 -91.5s-34.333 -36 -55 -28c-17.333 6 -25.5 14.833 -24.5 26.5s4 24.834 9 39.501
s8.83301 29.834 11.5 45.501s-3 30.5 -17 44.5c-28 25.333 -73.667 36.333 -137 33l-28.5 -313.5c-9 -99.667 -23.167 -191.334 -42.5 -275.001s-46.666 -156.667 -81.999 -219s-84.333 -109.833 -147 -142.5c-35.333 -18 -74.833 -13.5 -118.5 13.5
s-90.167 81.167 -139.5 162.5c-66.667 109.333 -100 210.666 -100 303.999s22.167 176.166 66.5 248.499s105.833 132.5 184.5 180.5s163.667 80.667 255 98l12 173c4.66699 66.667 9.83398 134.167 15.501 202.5s11.667 133.833 18 196.5s13.166 114 20.499 154
c-55.333 -30.667 -110.166 -63.5 -164.499 -98.5s-94.833 -71.5 -121.5 -109.5s-32.667 -77.667 -18 -119s63.334 -84 146.001 -128zM756.996 1299c38 20.667 63.167 34.833 75.5 42.5s17.5 12.5 15.5 14.5s-9 2.5 -21 1.5s-23 -0.166992 -33 2.5
c-8 0 -14.333 -5.66699 -19 -17zM318.996 -513.004c26 12.667 48.499 46.333 67.499 101s35.5 122.5 49.5 203.5s26 171 36 270s19.333 199.833 28 302.5c-80 -18 -153.5 -48.5 -220.5 -91.5s-118.5 -96.333 -154.5 -160s-52.667 -136.167 -50 -217.5
s33.334 -169 92.001 -263c36 -60 66.833 -100.667 92.5 -122s45.5 -29 59.5 -23z" />
    <glyph glyph-name="K" unicode="K" horiz-adv-x="1077" 
d="M28 1160c3.33301 10.667 9.50098 18.001 18.501 22.001s18.167 5 27.5 3s17 -6.5 23 -13.5s7.33301 -15.833 4 -26.5c-20 -63.333 -28.5 -113.333 -25.5 -150s15.167 -62.167 36.5 -76.5s50.333 -18.833 87 -13.5s78.334 19 125.001 41
c1.33301 28 7.66602 64.5 18.999 109.5s27.666 87.833 48.999 128.5s47.5 73.834 78.5 99.501s66.5 33.5 106.5 23.5c68 -16 110.5 -40.833 127.5 -74.5s16.5 -70.5 -1.5 -110.5s-49 -79.833 -93 -119.5s-93 -72.834 -147 -99.501c-2 -42 -3.33301 -85.667 -4 -131
s-2 -91 -4 -137c21.333 -1.33301 42 -7.83301 62 -19.5s40 -26.5 60 -44.5c24 2.66699 53.333 14.5 88 35.5s68 55.5 100 103.5s59 111.833 81 191.5s32 180.5 30 302.5c-0.666992 31.333 5.16602 55.333 17.499 72s26.5 25.834 42.5 27.501s30.667 -4.5 44 -18.5
s21 -36 23 -66c5.33301 -130 -6.16699 -239 -34.5 -327s-63.5 -159.333 -105.5 -214s-85.667 -94.667 -131 -120s-82.333 -40 -111 -44c32.667 -22 70.667 -53.667 114 -95s85.5 -88 126.5 -140s77.833 -106.5 110.5 -163.5s55 -112.5 67 -166.5
c6.66699 -34 3.16699 -60.833 -10.5 -80.5s-29.667 -31 -48 -34s-35.166 3.16699 -50.499 18.5s-21 41 -17 77c3.33301 36.667 -10.334 85 -41.001 145s-67 119.833 -109 179.5s-84 112.5 -126 158.5s-72.333 73 -91 81c-13.333 -6 -27.666 -9.83301 -42.999 -11.5
s-29.666 -2.5 -42.999 -2.5c0 -56.667 0.666992 -119.167 2 -187.5s1 -133 -1 -194s-6.33301 -113.5 -13 -157.5s-18 -70.667 -34 -80c-20.667 -12 -41.5 -14.167 -62.5 -6.5s-37.667 18.167 -50 31.5s-18.5 25.666 -18.5 36.999s10.333 14 31 8
c2.66699 17.333 4.16699 46.666 4.5 87.999s0.5 88 0.5 140s-0.333008 106 -1 162s-0.666992 107 0 153c-60 0 -106.833 6.83301 -140.5 20.5s-51.667 29.334 -54 47.001s11.834 35 42.501 52s80 29.167 148 36.5c2 42 3.16699 82.833 3.5 122.5s1.5 79.5 3.5 119.5
c-56 -20.667 -107.333 -31.167 -154 -31.5s-84.334 10.667 -113.001 33s-46.334 57.166 -53.001 104.499s2.33301 108 27 182zM457.001 568.001c0.666992 -10.667 0.999023 -17.333 0.999023 -20c7.33301 0 13.5 0.333008 18.5 1s11.5 2 19.5 4c-8 4 -14.667 7.5 -20 10.5
s-11.666 4.5 -18.999 4.5zM316 541.002c-0.666992 4.66699 -0.833984 8.33301 -0.500977 11s0.5 6.66699 0.5 12c-56.667 -5.33301 -91.667 -14 -105 -26c16.667 0 30.834 0.166992 42.501 0.5s23.5 0.833008 35.5 1.5s21 1 27 1zM470 988.001
c24 15.333 50.835 35.001 80.502 59.001s53 48.667 70 74s22.667 49.166 17 71.499s-31.834 39.5 -78.501 51.5c-14.667 4 -27.334 -4.83301 -38.001 -26.5s-19.667 -47.5 -27 -77.5s-13 -59.833 -17 -89.5s-6.33301 -50.5 -7 -62.5z" />
    <glyph glyph-name="L" unicode="L" horiz-adv-x="1085" 
d="M159 1335c6 8.66699 13.8311 13.334 23.498 14.001s18.334 -1.33301 26.001 -6s13 -11.167 16 -19.5s1.5 -16.833 -4.5 -25.5c-60 -73.333 -91.333 -140.833 -94 -202.5s13 -114.334 47 -158.001s80.667 -76.167 140 -97.5s121 -28 185 -20
c6 63.333 13.667 130.833 23 202.5s22.833 139.667 40.5 204s40 121.333 67 171s61.167 84.167 102.5 103.5c50.667 22.667 94.167 7.83398 130.5 -44.499s58.666 -118.833 66.999 -199.5s-0.333984 -163.834 -26.001 -249.501s-75.5 -150.5 -149.5 -194.5
c-16.667 -12.667 -34.5 -22.667 -53.5 -30s-39.167 -14 -60.5 -20c-4 -41.333 -9 -89.166 -15 -143.499s-13.667 -110.666 -23 -168.999s-20.666 -116.333 -33.999 -174s-29.333 -110.5 -48 -158.5c134 -30 233.833 -34.333 299.5 -13s113 49.166 142 83.499
s47.5 66.166 55.5 95.499s21.667 37.333 41 24c12.667 -10 15 -34 7 -72s-32.5 -75 -73.5 -111s-101.667 -63.5 -182 -82.5s-186.5 -14.5 -318.5 13.5c-23.333 -41.333 -53 -73.833 -89 -97.5s-74.333 -37.5 -115 -41.5s-81.5 2.66699 -122.5 20s-77.833 46 -110.5 86
c-46.667 58 -63.667 97.667 -51 119s39.167 32.666 79.5 33.999s87 -3.5 140 -14.5l130.5 -26.5c18.667 44.667 35.334 94.334 50.001 149.001s27.667 110 39 166s20.833 110.167 28.5 162.5s13.834 98.5 18.501 138.5c-78.667 -5.33301 -153 6.5 -223 35.5
s-124.167 70.5 -162.5 124.5s-55.5 117.5 -51.5 190.5s40 150.833 108 233.5zM646.998 837c82 26.667 139.832 74.332 173.499 142.999s53.334 138 59.001 208s2.16699 131.333 -10.5 184s-24 76.667 -34 72c-30 -14 -56 -43.167 -78 -87.5s-40.333 -95.666 -55 -153.999
s-26.5 -120 -35.5 -185s-15.5 -125.167 -19.5 -180.5zM285.997 18.998c15.333 14.667 28.333 32.667 39 54c-78 17.333 -135.167 29.5 -171.5 36.5s-59.5 9.66699 -69.5 8s-10.5 -7 -1.5 -16s20.167 -21.167 33.5 -36.5c26 -35.333 53 -60.5 81 -75.5
s57.667 -5.16699 89 29.5z" />
    <glyph glyph-name="M" unicode="M" horiz-adv-x="1345" 
d="M457 508c6 -8.66699 7.50293 -17.3291 4.50293 -25.9961s-8.33301 -15.667 -16 -21s-16.334 -7.83301 -26.001 -7.5s-17.5 5.5 -23.5 15.5c-74 89.333 -135.5 117.5 -184.5 84.5s-84.5 -89.667 -106.5 -170s-29.667 -165.833 -23 -256.5s28.667 -149.667 66 -177
c19.333 -14 45.666 -14.333 78.999 -1s76.666 46 129.999 98c78 81.333 132.667 183.166 164 305.499s51 243.333 59 363s9.83301 226.5 5.5 320.5s-2.83301 153 4.5 177c9.33301 37.333 22.666 61.166 39.999 71.499s34.5 12.5 51.5 6.5s31.5 -17.333 43.5 -34
s17.333 -33.667 16 -51c0.666992 -28.667 1.33398 -52.5 2.00098 -71.5s1.5 -38.167 2.5 -57.5s1.5 -34 1.5 -44c0.666992 -84.667 -6.33301 -182 -21 -292c-2 -123.333 -4.5 -227.5 -7.5 -312.5s-5 -153.833 -6 -206.5s0 -90.667 3 -114s9.5 -35 19.5 -35
c11.333 -1.33301 23.833 14 37.5 46s28.5 74.667 44.5 128s32.667 114.333 50 183l53 212c9.33301 39.333 19.333 99.666 30 180.999s25 160.333 43 237s40.333 139.5 67 188.5s61 61.167 103 36.5c14.667 -10 19 -42.5 13 -97.5s-15.667 -119 -29 -192l-40 -224.5
c-13.333 -76.667 -20 -141 -20 -193c0 -198.667 12.5 -343.834 37.5 -435.501s52 -155 81 -190s54.5 -54.833 76.5 -59.5s30 -19 24 -43c-4.66699 -15.333 -23.667 -21.666 -57 -18.999s-70 23 -110 61s-78.167 97.667 -114.5 179s-59.5 193 -69.5 335
c-36 -116 -72.167 -209.5 -108.5 -280.5s-70 -111 -101 -120s-58.167 16.667 -81.5 77s-40 164.5 -50 312.5c-42 -154 -100 -274.667 -174 -362s-145.667 -138.5 -215 -153.5s-126.833 8 -172.5 69s-61.5 163.5 -47.5 307.5c6 72.667 21.667 140.167 47 202.5
s58 109.166 98 140.499s86.167 42 138.5 32s108.5 -51 168.5 -123z" />
    <glyph glyph-name="N" unicode="N" horiz-adv-x="1382" 
d="M155 404c11.333 4 21.333 3.66699 30 -1s14.834 -11 18.501 -19s4 -16.167 1 -24.5s-10.167 -14.5 -21.5 -18.5c-91.333 -30 -126 -98 -104 -204s64.333 -165.833 127 -179.5s127.834 62 195.501 227s101.5 505.167 101.5 1020.5c0 11.333 6 16.5 18 15.5
s25.167 -5.5 39.5 -13.5s27.833 -18.333 40.5 -31s19 -24.667 19 -36v-51c9.33301 -23.333 17.666 -46.5 24.999 -69.5l23 -73.5l28 -87c10.667 -32 24 -68.667 40 -110c50.667 224 119.667 355.833 207 395.5s167.166 38.667 239.499 -3s124.833 -98 157.5 -169
s20 -104.5 -38 -100.5c-20 1.33301 -31.667 9.83301 -35 25.5s2 27.834 16 36.501c-4.66699 21.333 -19.834 51.333 -45.501 90s-56.834 65.167 -93.501 79.5s-76.5 6.66602 -119.5 -23.001s-84.167 -102.5 -123.5 -218.5c-14 -38 -25.833 -78.333 -35.5 -121
s-18.167 -85.667 -25.5 -129c1.33301 -12.667 17.833 -65.167 49.5 -157.5s60.5 -189.166 86.5 -290.499s40 -189.5 42 -264.5s-26 -102.167 -84 -81.5c-7.33301 4 -17.666 8.5 -30.999 13.5s-27.833 11.5 -43.5 19.5s-31.167 17 -46.5 27s-28 21.667 -38 35
c-23.333 30.667 -41.833 71.5 -55.5 122.5s-23 108.5 -28 172.5s-5.66699 131.833 -2 203.5s11.5 142.5 23.5 212.5c-13.333 42.667 -24.666 75 -33.999 97s-17.833 40 -25.5 54s-14.667 27.833 -21 41.5s-13.5 33.5 -21.5 59.5
c-22.667 -445.333 -82.834 -727.833 -180.501 -847.5s-187.667 -158.5 -270 -116.5s-135.166 124.167 -158.499 246.5s27.667 204.166 153 245.499zM873 257c-18 59.333 -35.667 120.665 -53 183.998c-8 -105.333 -6 -202.666 6 -291.999s33.667 -155 65 -197
c19.333 -23.333 34.166 -40.666 44.499 -51.999s19.5 -18 27.5 -20c4.66699 -1.33301 2.5 5 -6.5 19s-14.833 31.667 -17.5 53c-5.33301 38 -13.666 83.167 -24.999 135.5s-25 108.833 -41 169.5z" />
    <glyph glyph-name="O" unicode="O" horiz-adv-x="1193" 
d="M104 1201c6 8 13.998 11.8311 23.998 11.498s18.833 -3.16602 26.5 -8.49902s12.834 -12.166 15.501 -20.499s0 -16.5 -8 -24.5c-40 -44 -66.167 -83 -78.5 -117s-13.5 -63.5 -3.5 -88.5s29.5 -45.5 58.5 -61.5s65.5 -27.333 109.5 -34
c128 191.333 241.167 314.333 339.5 369s177.333 71 237 49s97.834 -67 114.501 -135s8 -128.333 -26 -181c116 -117.333 189.667 -240.166 221 -368.499s31.166 -246.5 -0.500977 -354.5s-89.5 -198.5 -173.5 -271.5s-183.667 -113.5 -299 -121.5
c-116 -7.33301 -215 18 -297 76s-143 134 -183 228s-57.667 198.667 -53 314s35.334 226.666 92.001 333.999c-54 10 -99.833 26.667 -137.5 50s-63 52 -76 86s-12.5 73.667 1.5 119s46 95.333 96 150zM372.998 778.998l-7.99902 -0.000976562h-10
c-28 -72 -45.333 -159.833 -52 -263.5s1 -202.5 23 -296.5s60.5 -172 115.5 -234s130.5 -87 226.5 -75c95.333 12 170 52.5 224 121.5s87.5 152 100.5 249s5.66699 200.333 -22 310s-75.5 210.834 -143.5 303.501c-28 -23.333 -60.5 -43 -97.5 -59s-75.667 -28.667 -116 -38
s-81.333 -15.333 -123 -18s-80.834 -2.66699 -117.501 0zM387.999 847.997c30.667 -1.33301 64.499 -0.833008 101.499 1.5s73.5 7.33301 109.5 15s70 18.167 102 31.5s59 30.666 81 51.999c-36 34.667 -63.333 62 -82 82s-19.667 41 -3 63c9.33301 10 21.333 13.333 36 10
s29.834 -10 45.501 -20s30.5 -21 44.5 -33s25.333 -21.333 34 -28c8 18.667 10.833 40.667 8.5 66s-8.5 48.833 -18.5 70.5s-23.833 38.5 -41.5 50.5s-37.5 14 -59.5 6c-23.333 -8.66699 -50.5 -24.167 -81.5 -46.5s-62.833 -49.666 -95.5 -81.999s-65 -68.833 -97 -109.5
s-60 -83.667 -84 -129z" />
    <glyph glyph-name="P" unicode="P" horiz-adv-x="1152" 
d="M398 1191c3.33301 10 12.8359 16.8379 28.5029 20.5049s31.667 4.5 48 2.5s30.666 -6.66699 42.999 -14s16.833 -16.666 13.5 -27.999c-2.66699 -6.66699 -3.66699 -24.667 -3 -54s2 -63 4 -101s4.33301 -76.667 7 -116s5 -72 7 -98
c70 -1.33301 117.5 -8.83301 142.5 -22.5s36.833 -27.834 35.5 -42.501s-11.166 -26.834 -29.499 -36.501s-35.5 -10.5 -51.5 -2.5c-22 12 -36.667 20.667 -44 26s-24 9 -50 11c7.33301 -80 11.333 -161.667 12 -245c66 8.66699 131.833 37.167 197.5 85.5
s114.5 109.333 146.5 183s39.167 156.167 21.5 247.5s-75.834 184 -174.501 278c-98 94 -192.167 130.5 -282.5 109.5s-167.666 -65.5 -231.999 -133.5s-111.166 -143.167 -140.499 -225.5s-32 -138.5 -8 -168.5c12.667 -16 29 -20.667 49 -14s40.333 15.5 61 26.5
s40.5 20 59.5 27s34.167 3.5 45.5 -10.5c11.333 -16 6.83301 -32.667 -13.5 -50s-46.833 -31 -79.5 -41s-66.834 -14.167 -102.501 -12.5s-62.834 14.167 -81.501 37.5c-35.333 45.333 -34.833 119.666 1.5 222.999s97.5 195.5 183.5 276.5s191.167 130.5 315.5 148.5
s256.833 -35.667 397.5 -161c106.667 -96.667 168.334 -196.334 185.001 -299.001s2.66699 -197 -42 -283s-112.834 -157.833 -204.501 -215.5s-192.5 -89.5 -302.5 -95.5v-165.5c0 -69 -8.66699 -133.5 -26 -193.5s-47.333 -107.167 -90 -141.5s-107 -37.5 -193 -9.5
c-11.333 4 -18.5 10 -21.5 18s-2.83301 16 0.5 24s9.33301 14.333 18 19s19 5 31 1c34 -11.333 60.667 0 80 34s33.666 77 42.999 129s15 105.333 17 160s3 96.334 3 125.001c-47.333 6 -84.333 21.667 -111 47s-45.834 53.666 -57.501 84.999s-16.667 62 -15 92
s7.5 53 17.5 69c13.333 23.333 35 40.833 65 52.5s59.333 20.167 88 25.5c-2 30 -4.66699 65.333 -8 106s-6 80.667 -8 120s-3 74.666 -3 105.999s2.33301 52.666 7 63.999zM423.003 491.005c-0.666992 81.333 -4 160.667 -10 238c-20 -5.33301 -40 -12.333 -60 -21
s-31.333 -21 -34 -37c-6 -103.333 28.667 -163.333 104 -180z" />
    <glyph glyph-name="Q" unicode="Q" horiz-adv-x="1127" 
d="M270 729c6 8.66699 13.832 13.335 23.499 14.002s18.334 -1.33301 26.001 -6s13 -11.167 16 -19.5s1.5 -16.833 -4.5 -25.5c-31.333 -40 -60 -67 -86 -81s-49.667 -17.667 -71 -11c-11.333 -60.667 -11.666 -130.167 -0.999023 -208.5s30.167 -152.833 58.5 -223.5
s64.833 -131.334 109.5 -182.001s95 -80 151 -88c-30 122 -31.5 214.333 -4.5 277s62 105 105 127s83.667 28 122 18s53.5 -26.333 45.5 -49c-6 -17.333 -20.5 -24.5 -43.5 -21.5s-47 2.16699 -72 -2.5s-47.167 -20.5 -66.5 -47.5s-29 -78.833 -29 -155.5
c-0.666992 -46.667 6.33301 -95.334 21 -146.001c82 18 151.833 75.167 209.5 171.5s96.667 207.5 117 333.5s18.833 254.167 -4.5 384.5s-75.333 237.833 -156 322.5c-86 89.333 -161.333 135.333 -226 138s-119.167 -18.833 -163.5 -64.5s-79.5 -105.667 -105.5 -180
s-43.667 -143.5 -53 -207.5c42.667 52 93.5 90.667 152.5 116s115.5 37.5 169.5 36.5s100.5 -14.667 139.5 -41s59.833 -64.833 62.5 -115.5c0 -11.333 -4 -20 -12 -26s-16.833 -9 -26.5 -9s-18.334 2.83301 -26.001 8.5s-11.5 14.5 -11.5 26.5
c-2.66699 37.333 -23 63.166 -61 77.499s-81.5 16.5 -130.5 6.5s-97.5 -32.667 -145.5 -68s-84 -83.666 -108 -144.999c10 -10 36.333 12 79 66zM587.999 -163.999c24 -58 48.1719 -96.834 72.5049 -116.501s46.666 -31.5 66.999 -35.5s37.833 -5.66699 52.5 -5
s24 -8 28 -26c3.33301 -18.667 -6 -31.334 -28 -38.001s-49 -4.16699 -81 7.5s-65.667 33.834 -101 66.501s-64 79 -86 139c-46 2.66699 -91.833 13.167 -137.5 31.5s-89 45.5 -130 81.5s-78 81.5 -111 136.5s-59.5 120.5 -79.5 196.5
c-22.667 83.333 -37.834 157.5 -45.501 222.5s-1.83398 123.5 17.499 175.5c-8 24.667 -10.833 55.834 -8.5 93.501s8.16602 77.5 17.499 119.5c60 227.333 161.167 360 303.5 398s277.833 13 406.5 -75s226.5 -223.5 293.5 -406.5s54.5 -381.833 -37.5 -596.5
c-16 -39.333 -38.333 -78.833 -67 -118.5s-61.334 -76.5 -98.001 -110.5s-76.167 -63.333 -118.5 -88s-85.5 -42 -129.5 -52z" />
    <glyph glyph-name="R" unicode="R" horiz-adv-x="1170" 
d="M332 1040c3.33301 10 13.002 16.499 29.002 19.499s32.667 3.33301 50 1s32.333 -7.33301 45 -15s17.334 -16.5 14.001 -26.5c-4 -11.333 -6 -33.5 -6 -66.5s1 -70.333 3 -112s4.83301 -83.834 8.5 -126.501l9.5 -109c34 -17.333 68.333 -38.666 103 -63.999
c58 26 112.167 56.833 162.5 92.5s88.666 76 114.999 121s37 94.167 32 147.5s-33.833 110.333 -86.5 171c-102 114.667 -201 165.667 -297 153s-179.333 -51.5 -250 -116.5s-123.834 -137.167 -159.501 -216.5s-43.834 -128.333 -24.501 -147
c9.33301 -10 22.5 -9.5 39.5 1.5s35.167 23.667 54.5 38s38.5 26.333 57.5 36s35.167 8.5 48.5 -3.5c14 -15.333 11.5 -33 -7.5 -53s-44.333 -37.333 -76 -52s-64.5 -24.334 -98.5 -29.001s-59 1 -75 17c-35.333 35.333 -28.333 103.5 21 204.5
s122.166 192.167 218.499 273.5s207 131.333 332 150s244.833 -36 359.5 -164c62 -69.333 97.167 -139 105.5 -209s-3.5 -135.333 -35.5 -196s-80.667 -114.167 -146 -160.5s-140.666 -80.5 -225.999 -102.5c90 -50 171.5 -118.667 244.5 -206s131.5 -173.5 175.5 -258.5
s69.833 -159.5 77.5 -223.5s-8.5 -98 -48.5 -102c-12 0 -22.333 3 -31 9s-13 13 -13 21c-4.66699 48 -21.667 104.5 -51 169.5s-66.333 131.5 -111 199.5s-94.667 134.167 -150 198.5s-111.666 118.5 -168.999 162.5c-14 -6.66699 -28.667 -12 -44 -16
s-29.666 -8.33301 -42.999 -13c13.333 -196 4.16602 -340.167 -27.501 -432.5s-69 -153.5 -112 -183.5s-83.5 -38.667 -121.5 -26s-57 26 -57 40c0 24 10 34.5 30 31.5s42 6.66699 66 29s45.167 70.5 63.5 144.5s25.5 201 21.5 381
c-82.667 -15.333 -139.334 -14.166 -170.001 3.50098s-45 40.834 -43 69.501s15 57.5 39 86.5s50 47.5 78 55.5c12 1.33301 25 2.5 39 3.5s28 -0.833008 42 -5.5c-2 32.667 -4.5 69.667 -7.5 111s-5.5 81.5 -7.5 120.5s-2.33301 74.167 -1 105.5s5 54 11 68z
M489.002 525.999l-0.000976562 -9.5v-8.5c2.66699 0 5.83398 1 9.50098 3s7.16699 3 10.5 3zM347.001 488.999c0.666992 24.667 -1.33594 49.332 -6.00293 73.999c-26.667 10 -48.667 12.167 -66 6.5s-30.666 -14.5 -39.999 -26.5s-15.166 -24.333 -17.499 -37
s-2.16602 -20 0.500977 -22c8.66699 -6.66699 24.5 -9.16699 47.5 -7.5s50.167 5.83398 81.5 12.501z" />
    <glyph glyph-name="S" unicode="S" horiz-adv-x="1048" 
d="M389 1079c13.333 4.66699 25.6719 6.16602 37.0049 4.49902s20.166 -5 26.499 -10s9.66602 -10.5 9.99902 -16.5s-3.83398 -11 -12.501 -15c-59.333 -26 -93.666 -52.167 -102.999 -78.5s-6 -49.333 10 -69s39 -34.167 69 -43.5s55 -10.333 75 -3
c-16.667 80.667 -11.5 155 15.5 223s64.5 122.667 112.5 164s101 65.833 159 73.5s109.333 -8.5 154 -48.5c49.333 -44.667 74.666 -90.667 75.999 -138s-12.667 -91.5 -42 -132.5s-69.833 -76.667 -121.5 -107s-106.167 -51.166 -163.5 -62.499
c7.33301 -30 19.5 -58.667 36.5 -86s35.5 -53.333 55.5 -78c178.667 -224 252.667 -402 222 -534s-106.334 -222 -227.001 -270s-256.5 -55.167 -407.5 -21.5s-257.5 104.5 -319.5 212.5c-20 34.667 -34.833 71.167 -44.5 109.5s-7.5 77.833 6.5 118.5
c14.667 44.667 37.834 82.834 69.501 114.501s68.167 58.5 109.5 80.5c56 30 112.667 33.167 170 9.5s102.166 -60.167 134.499 -109.5s46 -104.5 41 -165.5s-41.833 -113.833 -110.5 -158.5c-11.333 -8 -22 -11 -32 -9s-18 6.16699 -24 12.5s-8.66699 14 -8 23
s6 16.833 16 23.5c50 32.667 77.333 70.667 82 114s-3.5 82.833 -24.5 118.5s-50.333 62.667 -88 81s-74.167 18.833 -109.5 1.5c-32 -18 -61.833 -38.167 -89.5 -60.5s-47.834 -52.166 -60.501 -89.499c-22 -63.333 -14.5 -122 22.5 -176s88.5 -98.333 154.5 -133
s138.333 -57.334 217 -68.001s148 -4 208 20c39.333 16 73.166 35.667 101.499 59s43.166 59.5 44.499 108.5s-15.167 116 -49.5 201s-94.5 196.833 -180.5 335.5l-53.5 87.5c-17.667 30.333 -30.167 60.5 -37.5 90.5c-48 -14.667 -94.667 -12.334 -140 6.99902
s-78.666 46 -99.999 80s-25.166 71 -11.499 111s55.167 73 124.5 99zM677.006 880.999c100 21.333 169.499 52.332 208.499 92.999s58.5 80.834 58.5 120.501s-13.833 73.5 -41.5 101.5s-57.834 40.333 -90.501 37c-22 -2.66699 -42.167 -19 -60.5 -49
s-33.666 -64.333 -45.999 -103s-21.166 -77 -26.499 -115s-6 -66.333 -2 -85z" />
    <glyph glyph-name="T" unicode="T" horiz-adv-x="1325" 
d="M437 1297c11.333 2 21.0029 0.164062 29.0029 -5.50293s13 -12.5 15 -20.5s0.833008 -16.167 -3.5 -24.5s-12.833 -13.833 -25.5 -16.5c-88.667 -16 -169.667 -42.167 -243 -78.5s-116.666 -71.166 -129.999 -104.499s14.334 -58.833 83.001 -76.5s201 -15.5 397 6.5
c54.667 137.333 153.334 217 296.001 239s256.667 16 342 -18s105.666 -81.5 60.999 -142.5s-227 -105.833 -547 -134.5c8.66699 -86 19.167 -170.833 31.5 -254.5s25.5 -163.167 39.5 -238.5c20 -108 20.167 -195.333 0.5 -262s-59.167 -127.334 -118.5 -182.001
c-50.667 -46 -112.167 -74.333 -184.5 -85s-142.333 -8.16699 -210 7.5s-126 42.167 -175 79.5s-75.167 81.666 -78.5 132.999c-3.33301 36.667 2.16699 73.334 16.5 110.001s52.5 67.334 114.5 92.001c43.333 16.667 87.666 18.334 132.999 5.00098
s84.166 -32.5 116.499 -57.5s54.5 -51.167 66.5 -78.5s6 -47 -18 -59c-17.333 -8.66699 -29.5 -10.667 -36.5 -6s-14.5 13 -22.5 25s-19.333 26.667 -34 44s-38 34.666 -70 51.999c-28 13.333 -55.333 17.833 -82 13.5s-49.334 -14.666 -68.001 -30.999
s-31.834 -37.5 -39.501 -63.5s-5.83398 -54 5.49902 -84c20 -51.333 63.333 -86.666 130 -105.999s133 -18 199 4s119.5 68.333 160.5 139s46.167 171 15.5 301c-6 21.333 -12.833 56.5 -20.5 105.5s-14.5 99.833 -20.5 152.5s-10.833 101.5 -14.5 146.5
s-4.16699 74.5 -1.5 88.5c-206.667 -22 -351 -18.5 -433 10.5s-119.167 67.5 -111.5 115.5s52 97.667 133 149s181.833 88 302.5 110zM727.003 991.997c184 20.667 316.833 41.335 398.5 62.002s110.5 48 86.5 82c-16.667 22 -48.334 33.333 -95.001 34
s-96.167 -6.33301 -148.5 -21s-101.666 -35.834 -147.999 -63.501s-77.5 -58.834 -93.5 -93.501z" />
    <glyph glyph-name="U" unicode="U" horiz-adv-x="1143" 
d="M185 1089c11.333 4 21.3291 3.66797 29.9961 -0.999023s14.834 -11 18.501 -19s4 -16.167 1 -24.5s-10.167 -14.5 -21.5 -18.5c-49.333 -16 -84.166 -40.5 -104.499 -73.5s-28.666 -67.5 -24.999 -103.5s18 -70.333 43 -103s58.5 -56.667 100.5 -72
c4 56 19.833 118.833 47.5 188.5s61.5 131.5 101.5 185.5s83.667 92.5 131 115.5s92 15.833 134 -21.5c4.66699 -6.66699 8.33398 -15.334 11.001 -26.001s5.66699 -24 9 -40c4 -91.333 -0.666992 -169 -14 -233s-34 -115.333 -62 -154s-61.667 -65.5 -101 -80.5
s-82.666 -18.5 -129.999 -10.5c-4.66699 -14 -9 -54.833 -13 -122.5s-2.66699 -137.5 4 -209.5s21 -133.167 43 -183.5s56.667 -65.5 104 -45.5c18 8 33.833 19.833 47.5 35.5s28.334 37.167 44.001 64.5s33.834 60.833 54.501 100.5s48 87.5 82 143.5
c-3.33301 180 3 323 19 429s45 200.833 87 284.5s106.333 118.5 193 104.5c39.333 -11.333 64.666 -52.333 75.999 -123c2 -32.667 0.333008 -73.167 -5 -121.5s-16.833 -103 -34.5 -164s-42 -127.667 -73 -200s-70.833 -149.166 -119.5 -230.499c0 -16 1 -40 3 -72
s6.5 -65.833 13.5 -101.5s17 -69.667 30 -102s30.167 -56.5 51.5 -72.5c14 -10.667 19 -26.834 15 -48.501s-14.167 -37.834 -30.5 -48.501s-38.166 -10.5 -65.499 0.5s-57.666 43.833 -90.999 98.5c-6.66699 10 -13.5 24.833 -20.5 44.5s-13.5 40.5 -19.5 62.5
s-11.667 43.833 -17 65.5s-9.33301 40.167 -12 55.5c-103.333 -190.667 -192.833 -295.167 -268.5 -313.5s-135.834 8.33398 -180.501 80.001s-73.167 168 -85.5 289s-6.5 225.5 17.5 313.5c-58.667 20.667 -105.834 53 -141.501 97s-55.834 90.5 -60.501 139.5
s7.16602 96 35.499 141s77.833 78.5 148.5 100.5zM369.996 660.001c30.667 -2.66699 60 3.5 88 18.5s52 39.5 72 73.5s35.5 78.167 46.5 132.5s14.833 119.5 11.5 195.5c-8 -6 -20.667 -19 -38 -39s-36.5 -47.333 -57.5 -82s-42.5 -77 -64.5 -127s-41.333 -107.333 -58 -172
zM865.996 518.001c38 74 68.167 146.999 90.5 218.999s38.5 137 48.5 195s14 105.333 12 142s-8 56.334 -18 59.001c-4.66699 0.666992 -15.667 -17 -33 -53c-24 -44 -45.5 -112.167 -64.5 -204.5s-30.833 -211.5 -35.5 -357.5z" />
    <glyph glyph-name="V" unicode="V" horiz-adv-x="1249" 
d="M178 1146c8 8 16.8311 11.6621 26.498 10.9951s17.834 -4 24.501 -10s10.667 -13.333 12 -22s-2.66699 -17 -12 -25c-54 -52.667 -94 -104.5 -120 -155.5s-39 -96 -39 -135s11.667 -69.5 35 -91.5s57 -30.333 101 -25c2 31.333 7 67.166 15 107.499s22.333 77.333 43 111
s49.5 60 86.5 79s85.833 22.833 146.5 11.5c16 -4 30.5 -22 43.5 -54s17.5 -68 13.5 -108s-20.333 -79.5 -49 -118.5s-76 -67.167 -142 -84.5c-2.66699 -44 -3 -105.167 -1 -183.5s7 -156 15 -233s19.833 -144.333 35.5 -202s36.167 -88.5 61.5 -92.5
c20 -2 41.833 5.66699 65.5 23s48.667 47.333 75 90s54.333 100.334 84 173.001s60.834 163 93.501 271c-50 88 -77.667 176.5 -83 265.5s2 170.167 22 243.5c20 85.333 55 153.333 105 204s96.5 72.334 139.5 65.001s73.5 -49.666 91.5 -126.999s5.66699 -201.333 -37 -372
c-26.667 -97.333 -52 -185.666 -76 -264.999c2 -12.667 11.667 -28.667 29 -48s37.333 -39 60 -59l69 -58l57 -45c12 -6.66699 25.333 -16.167 40 -28.5s15.334 -26.5 2.00098 -42.5c-14.667 -15.333 -37.334 -14.5 -68.001 2.5s-61.667 38.833 -93 65.5
s-59.166 53 -83.499 79s-37.5 41 -39.5 45c-86 -260 -174.833 -425.833 -266.5 -497.5s-173.667 -82.167 -246 -31.5s-129.333 146.334 -171 287.001s-55.834 294 -42.501 460c-58 -5.33301 -104.5 6.33398 -139.5 35.001s-55 68 -60 118s6.16699 107.167 33.5 171.5
s75 129.5 143 195.5zM365.998 709.995c40.667 16 71.667 42.832 93 80.499s22.333 86.834 3 147.501c-16 -4.66699 -29.5 -16 -40.5 -34s-20.333 -38.5 -28 -61.5s-13.667 -46.5 -18 -70.5s-7.5 -44.667 -9.5 -62zM904.998 590.994l40.9971 154.999
c14.667 56.667 27.334 112.334 38.001 167.001s17.834 105.5 21.501 152.5s0.833984 84.5 -8.49902 112.5c-4.66699 13.333 -18 5.16602 -40 -24.501s-42 -72.667 -60 -129s-29 -122.666 -33 -198.999s9.66699 -154.5 41 -234.5z" />
    <glyph glyph-name="W" unicode="W" horiz-adv-x="1446" 
d="M31 1036c3.33301 10 9.49902 16.667 18.499 20s17.833 3.83301 26.5 1.5s15.834 -7.33301 21.501 -15s6.83398 -16.5 3.50098 -26.5c-62 -181.333 -21.667 -253 121 -215c11.333 130 46 223.333 104 280s118 88.834 180 96.501s115.833 -3 161.5 -32
s62.167 -64.167 49.5 -105.5c-7.33301 -26 -23.166 -53.167 -47.499 -81.5s-53.333 -55.5 -87 -81.5s-69.834 -49.5 -108.501 -70.5s-75.667 -37.5 -111 -49.5c-2 -102.667 -2 -194.167 0 -274.5s10.167 -139 24.5 -176s37 -47.333 68 -31s74.167 69.5 129.5 159.5
c4 8 9.83301 30.167 17.5 66.5s18.167 76.666 31.5 120.999s30.333 87.833 51 130.5s46 74 76 94c30.667 21.333 59.5 27.166 86.5 17.499s36.833 -36.167 29.5 -79.5c-8 -27.333 -25.333 -69.666 -52 -126.999s-67 -133 -121 -227c-4 -8.66699 -7.5 -41 -10.5 -97
s-1.5 -113 4.5 -171s18.333 -106.167 37 -144.5s48 -44.5 88 -18.5c36.667 24 71 65.167 103 123.5s60 119.5 84 183.5s42.5 122.833 55.5 176.5s18.833 87.5 17.5 101.5c-50 106 -82 203.667 -96 293s-17 163.333 -9 222c6 55.333 25.667 98.333 59 129s68 38 104 22
s67.5 -61.167 94.5 -135.5s37.5 -188.5 31.5 -342.5c-5.33301 -55.333 -15 -117 -29 -185c21.333 -44 46.666 -89.5 75.999 -136.5s63 -94.5 101 -142.5c2 -4 1.66699 -14.167 -1 -30.5s-11 -24.5 -25 -24.5s-35.667 15.833 -65 47.5s-69.333 93.834 -120 186.501
c-10 -28.667 -26 -79.167 -48 -151.5s-52 -143.333 -90 -213s-84.833 -126.334 -140.5 -170.001s-121.834 -51.5 -198.501 -23.5c-28 13.333 -51 36.666 -69 69.999s-32.167 70 -42.5 110s-17.5 79.167 -21.5 117.5s-6 68.5 -6 90.5
c-55.333 -60.667 -107.666 -102.167 -156.999 -124.5s-91.333 -19.166 -126 9.50098s-60 85.834 -76 171.501s-18.333 206.167 -7 361.5c-90.667 -18.667 -155.667 -3.33398 -195 45.999s-38 134 4 254zM367.999 831c32 14 68.8311 34.833 110.498 62.5
s77.5 55.667 107.5 84s48.833 54.333 56.5 78s-6.16602 39.5 -41.499 47.5c-41.333 8.66699 -76 5 -104 -11s-51 -38.333 -69 -67s-31.667 -60.667 -41 -96s-15.666 -68 -18.999 -98zM1186 711c6 48 8.83301 96.668 8.5 146.001s-2.5 95.333 -6.5 138s-9.5 80 -16.5 112
s-13.5 54.333 -19.5 67c0 1.33301 1.66699 4 5 8s3.66602 5.33301 0.999023 4c-16 -15.333 -26.333 -41.333 -31 -78s-5 -78 -1 -124s11.333 -93.333 22 -142s23.334 -92.334 38.001 -131.001z" />
    <glyph glyph-name="X" unicode="X" horiz-adv-x="1329" 
d="M213 847c6 8 13.998 12.0039 23.998 12.0039s19 -2.33301 27 -7s13.5 -10.834 16.5 -18.501s1.5 -15.5 -4.5 -23.5c-78 -99.333 -139.833 -135 -185.5 -107s-73.834 81 -84.501 159s-4 161.333 20 250s67.333 144 130 166c90.667 31.333 169.334 23 236.001 -25
s124.5 -113.5 173.5 -196.5s90.833 -172.333 125.5 -268s66 -175.167 94 -238.5c22 62 43.5 129.667 64.5 203s42.5 144.333 64.5 213s46 131.334 72 188.001s55.333 100 88 130c24 21.333 48.667 30.666 74 27.999s47.333 -11 66 -25s32.167 -30.333 40.5 -49
s7.5 -33 -2.5 -43c-20.667 -18 -37.667 -17.167 -51 2.5s-30 26.667 -50 21s-46.5 -39.167 -79.5 -100.5s-79.167 -182 -138.5 -362l-50 -156l-49 -150c26.667 -60.667 57.5 -123.834 92.5 -189.501s70.833 -124.667 107.5 -177s72.5 -94 107.5 -125
s65.833 -42.5 92.5 -34.5c11.333 4.66699 16 5 14 1s-7.83301 -10 -17.5 -18s-21.334 -16.333 -35.001 -25s-26.167 -15.334 -37.5 -20.001c-38 -12 -76.333 -8 -115 12s-76.167 50.333 -112.5 91s-71.5 89.667 -105.5 147s-65.667 117 -95 179
c-56 -137.333 -122.333 -245.333 -199 -324s-150 -125 -220 -139s-129.667 6 -179 60s-74.666 145.333 -75.999 274c-2 70.667 7.16699 134 27.5 190s48.5 96 84.5 120s78.833 27.667 128.5 11s103.5 -62 161.5 -136c20 -26 32.333 -52.5 37 -79.5
s4.33398 -50.667 -0.999023 -71s-14.166 -35.666 -26.499 -45.999s-25.5 -12.166 -39.5 -5.49902c-16 4.66699 -23.333 11.167 -22 19.5s4 19.166 8 32.499s6.16699 29.166 6.5 47.499s-8.5 39.5 -26.5 63.5c-75.333 96 -133.666 133.167 -174.999 111.5
s-68 -67.334 -80 -137.001s-10.167 -145 5.5 -226s43.5 -133.167 83.5 -156.5c30.667 -16 72.5 -9.66699 125.5 19s119.167 96.334 198.5 203.001c23.333 29.333 46 66.833 68 112.5s44 96.834 66 153.501l-162 381c-104 243.333 -189 383.166 -255 419.499
s-115 26.166 -147 -30.501s-48.333 -131.667 -49 -225s13 -148 41 -164c7.33301 -5.33301 19.166 -2.5 35.499 8.5s37.5 34.167 63.5 69.5z" />
    <glyph glyph-name="Y" unicode="Y" horiz-adv-x="1176" 
d="M105 1364c10 6 19.998 7.33398 29.998 4.00098s17.833 -8.5 23.5 -15.5s8 -14.667 7 -23s-6.5 -14.833 -16.5 -19.5c-36 -22 -57.667 -44.5 -65 -67.5s-5.16602 -44.667 6.50098 -65s30.167 -38.833 55.5 -55.5s52.666 -29.334 81.999 -38.001
c8 39.333 18.667 77.166 32 113.499s33.833 68.5 61.5 96.5s64 49.833 109 65.5s103.167 22.5 174.5 20.5c8.66699 -0.666992 16.167 -2.66699 22.5 -6s11.166 -9 14.499 -17c18 -69.333 22.833 -128.333 14.5 -177s-25.666 -87.834 -51.999 -117.501
s-60.333 -49.834 -102 -60.501s-87.5 -12.667 -137.5 -6c-4 -40 -7 -87.833 -9 -143.5s1 -106.334 9 -152.001s23.167 -79.5 45.5 -101.5s55.5 -19 99.5 9c33.333 18 70.166 51.833 110.499 101.5s81.833 116.167 124.5 199.5c8.66699 90 20 161 34 213s33 98 57 138
c20 37.333 44 63.5 72 78.5s53 20.167 75 15.5s38.167 -19 48.5 -43s7.83301 -56.667 -7.5 -98c-52 -137.333 -89.667 -227.5 -113 -270.5s-37 -77.5 -41 -103.5s-1 -63.333 9 -112s23 -147 39 -295c29.333 -19.333 61.333 -47.166 96 -83.499s64.5 -72.833 89.5 -109.5
s41.333 -69.5 49 -98.5s-0.5 -45.833 -24.5 -50.5c-18 -4 -30.5 -0.666992 -37.5 10s-15.333 27 -25 49s-24.167 48.833 -43.5 80.5s-51 67.167 -95 106.5c18 -249.333 -6.16699 -421.666 -72.5 -516.999s-144 -140 -233 -134s-174 49 -255 129s-127.167 170.667 -138.5 272
c-10 84 5.83301 153.5 47.5 208.5s93.334 97.5 155.001 127.5s125 48.333 190 55s115.5 4.33398 151.5 -6.99902c-5.33301 49.333 -11.166 96 -17.499 140s-9.5 93.333 -9.5 148c-80 -123.333 -154.667 -197.666 -224 -222.999s-128.5 -19 -177.5 19
s-85.333 99.667 -109 185s-29.834 177 -18.501 275c-46 14 -87.333 34.5 -124 61.5s-62.667 56.667 -78 89s-17.166 66 -5.49902 101s43.834 67.833 96.501 98.5zM374.998 1063c74 -10 131.167 4.66699 171.5 44s49.833 108 28.5 206
c-58 -8.66699 -102.833 -37.5 -134.5 -86.5s-53.5 -103.5 -65.5 -163.5zM620.998 -247.999c29.333 4 56.333 18.168 81 42.501s44.834 61.666 60.501 111.999s25.667 115.5 30 195.5s0.833008 177.667 -10.5 293c-32.667 16 -77.334 22 -134.001 18
s-111.834 -18.5 -165.501 -43.5s-98.667 -60.833 -135 -107.5s-50.166 -104 -41.499 -172c3.33301 -39.333 15 -79.5 35 -120.5s45 -78.333 75 -112s62.833 -60.667 98.5 -81s71.167 -28.5 106.5 -24.5z" />
    <glyph glyph-name="Z" unicode="Z" horiz-adv-x="1427" 
d="M372 1083c9.33301 -6.66699 14.335 -14.5029 15.002 -23.5029s-1.66602 -17 -6.99902 -24s-12.666 -12 -21.999 -15s-19 -1.83301 -29 3.5c-25.333 13.333 -50.333 12.333 -75 -3s-45 -37 -61 -65s-25.167 -58.833 -27.5 -92.5s6.16699 -62.5 25.5 -86.5
c14 -19.333 35.167 -34 63.5 -44s65.5 -12.5 111.5 -7.5s102 18.833 168 41.5s144 57 234 103c34.667 83.333 69 147.5 103 192.5s76.5 81.833 127.5 110.5s109.5 29.334 175.5 2.00098c22 -10 34 -26.667 36 -50s-4 -49.333 -18 -78s-35.333 -58 -64 -88
s-62.667 -56.333 -102 -79c-31.333 -19.333 -54.333 -32.666 -69 -39.999s-25.667 -14.166 -33 -20.499s-13 -15.166 -17 -26.499l-20 -59c-54.667 -144.667 -106.5 -265.834 -155.5 -363.501s-93.833 -177.834 -134.5 -240.501c12.667 -6.66699 45.334 -22.667 98.001 -48
s111.667 -51.166 177 -77.499s130.166 -49.333 194.499 -69s114.5 -27.167 150.5 -22.5c6 1.33301 5.5 11 -1.5 29s-19 38 -36 60s-38.667 43.833 -65 65.5s-55.833 36.834 -88.5 45.501c-22 4.66699 -34.333 10.834 -37 18.501s2.66602 13.5 15.999 17.5
s34.166 3.83301 62.499 -0.5s62.833 -16.166 103.5 -35.499c70 -34 123.667 -70.167 161 -108.5s54.666 -71.666 51.999 -99.999s-27.334 -48.166 -74.001 -59.499s-119 -7 -217 13c-58 14 -113.5 30.667 -166.5 50s-102.5 39.166 -148.5 59.499s-88 40 -126 59l-97 49.5
c-102 -126.667 -186 -186.334 -252 -179.001s-107.333 37 -124 89s-5.16699 103.667 34.5 155s114.5 57.666 224.5 18.999c22 34 44 70.833 66 110.5s44.667 84 68 133s47.833 103.833 73.5 164.5l83.5 206c-228 -106 -400 -141.167 -516 -105.5s-184.333 91.667 -205 168
s1.33301 147.666 66 213.999s164 77.166 298 32.499zM305.002 11.9971c27.333 20 57.667 51.001 91 93.001c-52 15.333 -91.5 15.166 -118.5 -0.500977s-43.5 -33.667 -49.5 -54s-2.16699 -36.833 11.5 -49.5s35.5 -9 65.5 11zM946.003 897.998
c20.667 10.667 42.999 26.167 66.999 46.5s45.5 41.333 64.5 63s33.333 41.667 43 60s10.5 30.5 2.5 36.5c-12 8 -27 4 -45 -12s-36 -36.667 -54 -62s-34.167 -51 -48.5 -77s-24.166 -44.333 -29.499 -55z" />
    <glyph glyph-name="a" unicode="a" horiz-adv-x="753" 
d="M541 393c0 -6.66699 -2.16797 -12.8359 -6.50098 -18.5029s-10.166 -9.16699 -17.499 -10.5c0 -21.333 -1.66699 -38.666 -5 -51.999s-6.33301 -29.5 -9 -48.5s-4.33398 -44 -5.00098 -75s1.33301 -74.5 6 -130.5c1.33301 -20 10.5 -19.167 27.5 2.5s35.5 49.667 55.5 84
s38.5 68.166 55.5 101.499s26.5 51.666 28.5 54.999c3.33301 4.66699 8.5 8.33398 15.5 11.001s13.5 3 19.5 1s10.5 -6.83301 13.5 -14.5s2.16699 -18.834 -2.5 -33.501l-29.5 -70.5c-17.667 -42.333 -41.5 -84.666 -71.5 -126.999s-65 -75.833 -105 -100.5s-83 -22 -129 8
c-17.333 12.667 -28.333 38.334 -33 77.001c-29.333 -25.333 -71.166 -40.5 -125.499 -45.5s-102.5 2.5 -144.5 22.5s-68.167 54.333 -78.5 103s13.5 115 71.5 199c40 60 87 100.333 141 121s105.167 29.834 153.5 27.501s89.5 -12.666 123.5 -30.999s51 -36.833 51 -55.5z
M356.999 431.998c-29.333 0.666992 -60.6689 -18.3301 -94.002 -56.9971s-59.166 -81 -77.499 -127s-24.833 -87.5 -19.5 -124.5s32 -53.167 80 -48.5c26.667 2.66699 50.834 22.167 72.501 58.5s38.5 76.166 50.5 119.499s17.5 83.166 16.5 119.499
s-10.5 56.166 -28.5 59.499z" />
    <glyph glyph-name="b" unicode="b" horiz-adv-x="698" 
d="M241 335c-9.33301 -6.66699 -19.998 -9.00098 -31.998 -7.00098s-20.333 7.33301 -25 16c1.33301 -78 4.16602 -143.5 8.49902 -196.5s12.333 -90.5 24 -112.5s27.5 -27.333 47.5 -16s46.333 43 79 95c-30 6.66699 -51.5 19.334 -64.5 38.001s-18.667 38 -17 58
s9.66699 38.167 24 54.5s34.166 26.166 59.499 29.499c10 0.666992 22.667 2.5 38 5.5s30 3.5 44 1.5s26.5 -8.66699 37.5 -20s17.5 -30.666 19.5 -57.999c19.333 -6.66699 38 -3.16699 56 10.5s35 28.5 51 44.5s31 29 45 39s27 8.33301 39 -5c7.33301 -12 6 -28 -4 -48
s-25 -40 -45 -60s-42.667 -37 -68 -51s-50 -21 -74 -21c-12.667 -30 -28.167 -58.667 -46.5 -86s-40.5 -49.333 -66.5 -66c-96.667 -62 -177.667 -61.167 -243 2.5s-105.833 153.5 -121.5 269.5s-2.33398 239.333 39.999 370s123.5 232 243.5 304
c58.667 34.667 109.334 37.667 152.001 9s67 -75 73 -139s-11.333 -138 -52 -222s-114.667 -163.667 -222 -239zM184.002 380.999c4 6 20.8311 20.835 50.498 44.502s60.834 53.667 93.501 90s61.334 77.666 86.001 123.999s34 95.5 28 147.5
c-7.33301 45.333 -24.333 72.5 -51 81.5s-55 -2.5 -85 -34.5s-57.333 -85.333 -82 -160s-38 -172.334 -40 -293.001zM358 181.001c0.666992 20 -7.66699 36.667 -25 50c0 -8.66699 2.16699 -18 6.5 -28s10.5 -17.333 18.5 -22z" />
    <glyph glyph-name="c" unicode="c" horiz-adv-x="607" 
d="M317 203c-10 -6.66699 -19.8311 -8.83105 -29.498 -6.49805s-17.334 6.66602 -23.001 12.999s-8.16699 14 -7.5 23s6 16.833 16 23.5c44.667 26.667 58 49.5 40 68.5s-42.333 25.5 -73 19.5s-55.5 -28.667 -74.5 -68s-6.5 -103 37.5 -191c11.333 -24 31.5 -33 60.5 -27
s60.5 20 94.5 42s66.667 48.167 98 78.5s55 57.833 71 82.5c6 10 13.5 15.333 22.5 16s17 -1.5 24 -6.5s12 -11.833 15 -20.5s1.83301 -17.334 -3.5 -26.001c-22 -36.667 -59.333 -78.667 -112 -126s-108.334 -84.5 -167.001 -111.5s-114.5 -36.833 -167.5 -29.5
s-91.167 47.333 -114.5 120c-42 130.667 -35.333 220 20 268s117 69.833 185 65.5s120.167 -27.5 156.5 -69.5s13.5 -88 -68.5 -138z" />
    <glyph glyph-name="d" unicode="d" horiz-adv-x="768" 
d="M279 239c-36 68 -64.001 99.501 -84.001 94.501s-33.667 -24.5 -41 -58.5s-8.83301 -71.667 -4.5 -113s12.5 -64.333 24.5 -69c8.66699 -2 20.834 3.16699 36.501 15.5s36.5 36.166 62.5 71.499c-0.666992 20 1.33301 39.667 6 59zM163.999 398.001
c19.333 6 40.001 5.83301 62.001 -0.5s44 -22.833 66 -49.5c45.333 242 92.833 419.667 142.5 533s116.5 158.333 200.5 135c56 -16 78.167 -67.333 66.5 -154s-36.834 -179.834 -75.501 -279.501s-81.167 -191.334 -127.5 -275.001s-76.166 -130.5 -89.499 -140.5
c-2 0 -3.16699 -7 -3.5 -21s0.666992 -30 3 -48s7 -35.5 14 -52.5s17.5 -28.5 31.5 -34.5c16.667 -9.33301 39.334 -4.66602 68.001 14.001c35.333 24 63.833 52.167 85.5 84.5s39.667 63 54 92s26.833 53.167 37.5 72.5s22.667 28 36 26
c23.333 -5.33301 28.666 -28 15.999 -68s-35.834 -82.667 -69.501 -128s-73.5 -85.333 -119.5 -120s-91 -50 -135 -46c-26.667 3.33301 -49.167 10.333 -67.5 21s-33.333 23 -45 37s-20.167 28.833 -25.5 44.5s-8.66602 29.834 -9.99902 42.501
c-58 -55.333 -111.5 -73.833 -160.5 -55.5s-83.333 51.5 -103 99.5s-19.834 100.167 -0.500977 156.5s69 94.5 149 114.5zM429 348.001c18 31.333 40.333 76.501 67 135.501s51.167 119.5 73.5 181.5s39.5 118.5 51.5 169.5s12.333 84.167 1 99.5
c-16 0 -33.667 -23.167 -53 -69.5s-38 -101.333 -56 -165s-34.5 -128.334 -49.5 -194.001s-26.5 -118.167 -34.5 -157.5z" />
    <glyph glyph-name="e" unicode="e" horiz-adv-x="561" 
d="M159 207c44.667 -2.66699 78.002 5.66602 100.002 24.999s34.333 40.333 37 63s-3.33301 42.667 -18 60s-36.334 23 -65.001 17c-14 -3.33301 -25.833 -18.166 -35.5 -44.499s-15.834 -66.5 -18.501 -120.5zM327.002 22c-30 -10.667 -63.999 -16.0029 -101.999 -16.0029
s-73.833 6.5 -107.5 19.5s-61.667 32.833 -84 59.5s-33.5 61.667 -33.5 105c0 88 19.833 150.833 59.5 188.5s83 57.5 130 59.5s89.833 -10.167 128.5 -36.5s57.334 -59.166 56.001 -98.499c-0.666992 -20.667 -7.33398 -40.667 -20.001 -60s-29 -36.666 -49 -51.999
s-42.167 -27.666 -66.5 -36.999s-48.5 -14 -72.5 -14c8.66699 -43.333 31.5 -65.833 68.5 -67.5s74.833 9.16602 113.5 32.499c40 29.333 68.833 58.5 86.5 87.5s31.5 53.5 41.5 73.5c1.33301 6.66699 4 11.667 8 15c9.33301 14.667 20.666 21 33.999 19
c20 -4 28.167 -18.667 24.5 -44s-14.5 -53 -32.5 -83c-17.333 -30.667 -39.333 -57.667 -66 -81c-17.333 -16.667 -36 -31.167 -56 -43.5s-40.333 -21.166 -61 -26.499z" />
    <glyph glyph-name="f" unicode="f" horiz-adv-x="880" 
d="M132 909c16 17.333 33.834 22.8311 53.501 16.498s25.834 -20.166 18.501 -41.499c-62 -64.667 -98.833 -121.167 -110.5 -169.5s-11.5 -89 0.5 -122s30.167 -58.667 54.5 -77s41.833 -29.5 52.5 -33.5v34.5c0 11 1.66699 22.833 5 35.5v0
c9.33301 101.333 42.166 196.333 98.499 285s119.333 159 189 211s137.167 78.833 202.5 80.5s111.333 -33.833 138 -106.5c34 -99.333 37 -187.5 9 -264.5s-70 -141.5 -126 -193.5s-117 -91.5 -183 -118.5s-119.667 -40.167 -161 -39.5c-2 -22 -2.33301 -46.5 -1 -73.5
s3 -53.833 5 -80.5s4.33301 -52.167 7 -76.5s5 -44.5 7 -60.5c34 -1.33301 72.333 -18 115 -50c31.333 1.33301 58.5 9.33301 81.5 24s43.5 32.167 61.5 52.5s33.833 42.166 47.5 65.499s27.167 44.333 40.5 63c6 9.33301 13.333 14.5 22 15.5s16 -1.16699 22 -6.5
s9.66699 -13.166 11 -23.499s-1 -21.833 -7 -34.5c-6 -10.667 -14 -26.667 -24 -48s-24 -43 -42 -65s-40 -42.333 -66 -61s-57.667 -30.667 -95 -36c84 -92.667 120.667 -171.167 110 -235.5s-42.167 -103.5 -94.5 -117.5s-112.666 2.33301 -180.999 49
s-117.833 134 -148.5 262c-20.667 5.33301 -36.334 13.333 -47.001 24s-16.834 22.334 -18.501 35.001s1 25.5 8 38.5s17.833 23.833 32.5 32.5l-9.5 67c-3.66699 26 -6.66699 53.167 -9 81.5s-4.16602 57 -5.49902 86s-1 55.5 1 79.5c-28.667 4.66699 -61 19.667 -97 45
s-63 59.333 -81 102s-20.833 93.5 -8.5 152.5s53.166 124.5 122.499 196.5zM378.001 471.998c21.333 -1.33301 58.833 9.32617 112.5 31.9932s105.5 56.334 155.5 101.001s88.833 100.334 116.5 167.001s26.167 143.334 -4.5 230.001
c-17.333 48.667 -45.333 64.334 -84 47.001s-78.667 -52.666 -120 -105.999s-78.833 -116.666 -112.5 -189.999s-53.5 -141.666 -59.5 -204.999v0c-3.33301 -12.667 -4.83301 -25.5 -4.5 -38.5s0.5 -25.5 0.5 -37.5zM401.001 44.9902c0 -2 1.33203 -4.33301 3.99902 -7h15
c-3.33301 1.33301 -6.16602 2.83301 -8.49902 4.5s-5.83301 2.5 -10.5 2.5zM420 -31.0098c24 -96 54 -163 90 -201s63.5 -53 82.5 -45s22.833 35.5 11.5 82.5s-52 106.833 -122 179.5c-24 -8.66699 -44.667 -14 -62 -16z" />
    <glyph glyph-name="g" unicode="g" horiz-adv-x="846" 
d="M441 273c-16 -5.33301 -29.667 -3.50098 -41 5.49902s-22 19.5 -32 31.5s-20.167 22.333 -30.5 31s-21.833 10 -34.5 4c-27.333 -12 -49.166 -40.667 -65.499 -86s-22.5 -84.5 -18.5 -117.5s21 -48.5 51 -46.5s78 44.333 144 127c7.33301 8 13.666 16.333 18.999 25
s8 17.334 8 26.001zM266 401.999c28 10 56.8359 12.4951 86.5029 7.49512s61.5 -28.5 95.5 -70.5c2 28.667 11.5 49 28.5 61s35.5 18 55.5 18s38 -5.5 54 -16.5s24 -24.5 24 -40.5c1.33301 -23.333 0.166016 -40.833 -3.50098 -52.5s-7 -27.5 -10 -47.5
s-4.5 -48.667 -4.5 -86s4.33301 -93.666 13 -168.999c39.333 -2.66699 75.666 -13.667 108.999 -33s60 -40.5 80 -63.5s30.667 -44.5 32 -64.5s-10 -31.333 -34 -34c-13.333 -2 -23.833 2.33301 -31.5 13l-28 38c-11 14.667 -25.667 29.167 -44 43.5
s-44.5 23.833 -78.5 28.5l34 -219c14.667 -92 13.667 -179 -3 -261s-58.834 -146.333 -126.501 -193s-179.5 -52 -335.5 -16c-99.333 28 -156.5 79.833 -171.5 155.5s-3.5 155.334 34.5 239.001s95.333 160.834 172 231.501s157.667 114 243 130
c-3.33301 23.333 -6.16602 48.833 -8.49902 76.5s-4.83301 50.834 -7.5 69.501c-76.667 -86.667 -149.334 -130 -218.001 -130s-118 21.333 -148 64s-33.167 96.334 -9.5 161.001s90.5 118 200.5 160zM466.003 -78.0059l-5 7.99707c-66 -12 -130.833 -47.167 -194.5 -105.5
s-112.667 -122.166 -147 -191.499s-47.833 -135.166 -40.5 -197.499s48.666 -103.5 123.999 -123.5c94 -26 161.667 -17.333 203 26s67.333 100.833 78 172.5s11.834 146.834 3.50098 225.501s-15.5 140.667 -21.5 186z" />
    <glyph glyph-name="h" unicode="h" horiz-adv-x="832" 
d="M179 422c18 15.333 58.667 52.834 122 112.501s121.333 123.5 174 191.5s86 131.167 100 189.5s-19.333 94.5 -100 108.5c-49.333 6.66699 -91.833 -12.333 -127.5 -57s-65.5 -99.834 -89.5 -165.501s-42.333 -134 -55 -205s-20.667 -129.167 -24 -174.5zM677 139.001
l63.499 112.999c19 34.667 34.167 50.667 45.5 48c12 -4 18.667 -12.333 20 -25s-1 -28.167 -7 -46.5s-14.5 -38.833 -25.5 -61.5s-23.5 -45 -37.5 -67c-29.333 -47.333 -56 -85 -80 -113s-60.333 -45.667 -109 -53c-58 -8 -96.667 4.16699 -116 36.5
s-30.666 69.5 -33.999 111.5s-4 81.333 -2 118s-4.66699 55 -20 55c-13.333 0 -26.5 -13 -39.5 -39s-24.667 -54.667 -35 -86s-19.166 -60.333 -26.499 -87s-12 -41 -14 -43c-86 -46 -152.833 -12 -200.5 102s-66.834 247 -57.501 399s52.166 292.167 128.499 420.5
s196.166 183.166 359.499 164.499c112 -14 164.5 -57.833 157.5 -131.5s-40 -153.5 -99 -239.5s-127.333 -165.667 -205 -239s-130.5 -116 -158.5 -128c-2 -25.333 -2.66699 -52.333 -2 -81s2.66699 -56.167 6 -82.5s7.83301 -50.333 13.5 -72s12.834 -38.167 21.501 -49.5
c-2 56 13.5 110.667 46.5 164s69.5 87.833 109.5 103.5s76.833 3.83398 110.5 -35.499s50.5 -123.666 50.5 -252.999c2 -24 8.33301 -37.167 19 -39.5s21.334 3.5 32.001 17.5c12 14.667 22.333 28 31 40l28 39c10 14 18.667 27.333 26 40z" />
    <glyph glyph-name="i" unicode="i" horiz-adv-x="494" 
d="M33 360c6 8 19.166 12.002 39.499 12.002s40.5 -2.5 60.5 -7.5s36.667 -11.667 50 -20s17 -16.833 11 -25.5c-15.333 -16.667 -27 -47.5 -35 -92.5s-6 -80 6 -105s36.833 -28 74.5 -9s94.5 84.5 170.5 196.5c10 14 19.833 23 29.5 27s17.5 4 23.5 0s9 -11.833 9 -23.5
s-4.33301 -26.167 -13 -43.5c-17.333 -32 -40.666 -65.5 -69.999 -100.5s-62 -64.5 -98 -88.5s-73.667 -38.667 -113 -44s-78 6 -116 34c-20.667 15.333 -36 36.166 -46 62.499s-15.667 53.833 -17 82.5s1 56.167 7 82.5s15 47.166 27 62.499zM150.999 588.002
c15.333 0 28.5 -5.66699 39.5 -17s16.5 -25.666 16.5 -42.999c0 -18 -5.5 -33.5 -16.5 -46.5s-24.167 -19.5 -39.5 -19.5c-16 0 -29.167 6.5 -39.5 19.5s-15.5 28.5 -15.5 46.5c0 17.333 5.16699 31.666 15.5 42.999s23.5 17 39.5 17z" />
    <glyph glyph-name="j" unicode="j" horiz-adv-x="810" 
d="M276 209c-18 -26 -33.667 -42.665 -47 -49.998s-23.833 -9 -31.5 -5s-11.667 12.167 -12 24.5s4.16699 26.166 13.5 41.499l45.5 78.5c12.333 22.333 25.5 40.5 39.5 54.5s31.333 23.667 52 29s48.667 6.66602 84 3.99902c31.333 -3.33301 61.666 -22.333 90.999 -57
s55.333 -76 78 -124s41 -97.667 55 -149s21.333 -95.666 22 -132.999c44 -20.667 72.333 -42.834 85 -66.501s17.334 -44.334 14.001 -62.001s-10.666 -29.5 -21.999 -35.5s-19 -2 -23 12l-14 49c-4 14 -17.667 25 -41 33c0 -102 -26.667 -188.167 -80 -258.5
s-115.5 -120.5 -186.5 -150.5s-141.833 -37.333 -212.5 -22s-123.667 57.666 -159 126.999c-30.667 62.667 -35.834 119.834 -15.501 171.501s55.833 95.167 106.5 130.5s111.334 61.333 182.001 78s140 21 208 13c2 25.333 -3.16699 58.333 -15.5 99
s-27.333 80.834 -45 120.501s-34.834 74.167 -51.501 103.5s-28 44.333 -34 45c-10.667 0.666992 -23.167 -9.33301 -37.5 -30zM403 -438.998c42 48 71.833 99.332 89.5 153.999s25.167 108 22.5 160c-48 8 -102 6.66699 -162 -4s-113.5 -29 -160.5 -55
s-81.667 -59.333 -104 -100s-19.5 -88 8.5 -142c12.667 -26 30 -47.167 52 -63.5s46.833 -26.166 74.5 -29.499s57 1.16699 88 13.5s61.5 34.5 91.5 66.5zM371 629.001c15.333 0 28.5 -5.66699 39.5 -17s16.5 -25.666 16.5 -42.999c0 -18 -5.5 -33.5 -16.5 -46.5
s-24.167 -19.5 -39.5 -19.5c-16 0 -29.167 6.5 -39.5 19.5s-15.5 28.5 -15.5 46.5c0 17.333 5.16699 31.666 15.5 42.999s23.5 17 39.5 17z" />
    <glyph glyph-name="k" unicode="k" horiz-adv-x="574" 
d="M210 424c-4.66699 -7.33301 -11.334 -12.6709 -20.001 -16.0039s-17.334 -4.33301 -26.001 -3c-5.33301 -48.667 -13 -100.334 -23 -155.001c8.66699 56 36.834 102 84.501 138s90.5 56.333 128.5 61s59.5 -9.16602 64.5 -41.499s-30.833 -89.166 -107.5 -170.499
c-8 -20 -12.5 -40 -13.5 -60s0.166992 -38.333 3.5 -55s8.16602 -30.5 14.499 -41.5s12.833 -17.167 19.5 -18.5c18 -4.66699 35.833 5.33301 53.5 30s34.834 52.5 51.501 83.5s33 59.5 49 85.5s31.333 38 46 36c18 -4 23.167 -21.167 15.5 -51.5s-21.5 -63.333 -41.5 -99
s-43.333 -68.167 -70 -97.5s-50 -45 -70 -47l-49 -4c-16 -1.33301 -31 2.33398 -45 11.001c-15.333 9.33301 -26.5 21.5 -33.5 36.5s-12.5 31.5 -16.5 49.5s-7.16699 36.5 -9.5 55.5s-6.16602 37.167 -11.499 54.5c-22 -32 -35.333 -60.167 -40 -84.5s-7 -44.666 -7 -60.999
s-1 -28.833 -3 -37.5s-11 -14 -27 -16c-32 -4.66699 -57 12.5 -75 51.5s-31 86.333 -39 142s-12.167 111.834 -12.5 168.501s1.16699 100 4.5 130c31.333 261.333 81 424.333 149 489s125 73 171 25s66.833 -131.5 62.5 -250.5s-63.5 -231.5 -177.5 -337.5zM173 509.995
c47.333 32 81.332 71.999 101.999 119.999s33.834 94.833 39.501 140.5s6.16699 85 1.5 118s-8.66699 49.833 -12 50.5c-4 0 -12.167 -11 -24.5 -33s-25.5 -52.167 -39.5 -90.5s-27.5 -83.666 -40.5 -135.999s-21.833 -108.833 -26.5 -169.5z" />
    <glyph glyph-name="l" unicode="l" horiz-adv-x="577" 
d="M200 490c-5.33301 -2 -9.66797 -3.00098 -13.001 -3.00098s-7.33301 1 -12 3c0 -8.66699 -0.166992 -32.667 -0.5 -72s-0.5 -81.833 -0.5 -127.5s0.833008 -87.834 2.5 -126.501s4.5 -61.334 8.5 -68.001c15.333 -33.333 36.333 -38.666 63 -15.999s54.334 53 83.001 91
l82.5 106c26.333 32.667 46.5 42.334 60.5 29.001c6 -6.66699 7.83301 -16 5.5 -28s-7 -25 -14 -39s-15.167 -27.833 -24.5 -41.5s-17 -25.5 -23 -35.5c-30 -46 -67 -87.833 -111 -125.5s-87 -62.667 -129 -75s-79 -7.5 -111 14.5s-51 71 -57 147
c-23.333 277.333 -2.66602 482.333 62.001 615s137.334 214 218.001 244s151.167 19.5 211.5 -31.5s74.166 -121.167 41.499 -210.5c-8.66699 -23.333 -19.834 -46.666 -33.501 -69.999s-33.167 -46 -58.5 -68s-58 -42.667 -98 -62s-91 -36 -153 -50zM184.998 550.999
c88 21.333 153.832 50.333 197.499 87s72.834 73.667 87.501 111s19 70.833 13 100.5s-14.667 48.5 -26 56.5c-26.667 13.333 -54.667 12.833 -84 -1.5s-57 -38.333 -83 -72s-48.5 -75 -67.5 -124s-31.5 -101.5 -37.5 -157.5z" />
    <glyph glyph-name="m" unicode="m" horiz-adv-x="908" 
d="M546 -46c-11.333 5.33301 -18.499 12.4941 -21.499 21.4941s-4.16699 22.667 -3.5 41s2.33398 43.333 5.00098 75s4.66699 73.167 6 124.5c0 20 -7.83301 19.167 -23.5 -2.5l-56.5 -82c-22 -33 -45.167 -64.5 -69.5 -94.5s-45.5 -44 -63.5 -42
c-19.333 2.66699 -32.5 12.167 -39.5 28.5s-10.833 37.5 -11.5 63.5s0.166016 55.833 2.49902 89.5s2.83301 68.5 1.5 104.5c-28 -41.333 -47.5 -77.333 -58.5 -108s-18.833 -57.334 -23.5 -80.001l-12.5 -58.5c-3.66699 -16.333 -11.834 -30.5 -24.501 -42.5
c-6 -6 -16.833 -9.33301 -32.5 -10s-31.5 0.333008 -47.5 3s-29.833 6.83398 -41.5 12.501s-16.5 12.834 -14.5 21.501c4 30 8.83301 51 14.5 63s10.167 23 13.5 33s4.66602 23.333 3.99902 40s-5 44.667 -13 84c-29.333 -14 -40.833 -6.83301 -34.5 21.5
s20.5 55.5 42.5 81.5s47 38.833 75 38.5s48.667 -36.5 62 -108.5c2.66699 4.66699 11.667 19 27 43s33.333 43 54 57c46 30 78.5 39.667 97.5 29s30.5 -30.667 34.5 -60s3.66699 -62.5 -1 -99.5s-8 -66.833 -10 -89.5c48.667 86.667 89.834 148.334 123.501 185.001
s61 57 82 61s36.667 -3.83301 47 -23.5s16.833 -42.167 19.5 -67.5c-0.666992 -57.333 -1.5 -104.333 -2.5 -141s-1.5 -65.5 -1.5 -86.5s0.166992 -35.167 0.5 -42.5s1.5 -10 3.5 -8c48 42.667 84.833 81.334 110.5 116.001s45 64 58 88l28.5 53.5
c6 11.667 13.667 16.167 23 13.5c24.667 -9.33301 31.334 -32.666 20.001 -69.999s-32.833 -77.166 -64.5 -119.499s-69.334 -81.5 -113.001 -117.5s-85.5 -57.667 -125.5 -65c-8 -1.33301 -23.333 7.33398 -46 26.001z" />
    <glyph glyph-name="n" unicode="n" horiz-adv-x="692" 
d="M611 133c-0.666992 -2 -9.66895 -14.9971 -27.002 -38.9971c-36.667 -38.667 -69.667 -67.667 -99 -87s-68.666 -35.333 -117.999 -48c-48.667 -12 -79.334 -1.83301 -92.001 30.5s-4.66699 85.833 24 160.5c8.66699 29.333 18.167 58.166 28.5 86.499
s15.5 53.5 15.5 75.5c-30 -30.667 -58 -64 -84 -100l-72.5 -100.5c-22.333 -31 -43.166 -56.667 -62.499 -77s-37 -30.5 -53 -30.5c-12 0 -20.667 3.16699 -26 9.5s-8 13.833 -8 22.5c1.33301 32.667 2.5 59.167 3.5 79.5s2.16699 40 3.5 59s2 30.833 2 35.5
c-22 -8 -35.667 -4.66699 -41 10s-6.33301 32.834 -3 54.501s9.83301 43 19.5 64s19.5 34.167 29.5 39.5c20.667 11.333 39 12 55 2s29.333 -25.333 40 -46s18.5 -44 23.5 -70s6.83301 -49.333 5.5 -70c24 37.333 50.333 72.666 79 105.999s56.5 59.5 83.5 78.5
s51.833 28 74.5 27s40.667 -17.167 54 -48.5c9.33301 -22 9.83301 -51.5 1.5 -88.5s-18.833 -73.167 -31.5 -108.5s-24.334 -65.333 -35.001 -90s-13.667 -36 -9 -34c27.333 11.333 50.833 24.166 70.5 38.499s35.5 27.166 47.5 38.499c14 14 27.667 31.333 41 52l38 59.5
c12 19 23.5 35 34.5 48s21.5 18.833 31.5 17.5c20.667 -4.66699 24.834 -22 12.501 -52s-31.166 -65 -56.499 -105z" />
    <glyph glyph-name="o" unicode="o" horiz-adv-x="665" 
d="M362 409c11.333 0 19.9941 -3.66406 25.9941 -10.9971s9 -15 9 -23s-3 -15.333 -9 -22s-14.667 -10 -26 -10c-92.667 -2.66699 -151.167 -22.5 -175.5 -59.5s-30.166 -76.667 -17.499 -119s36.334 -80.5 71.001 -114.5s64.667 -50 90 -48c9.33301 0 14.333 4 15 12
s-0.833008 21.167 -4.5 39.5s-8.16699 42.833 -13.5 73.5s-9.66602 69 -12.999 115c-4 48 5.66699 71.5 29 70.5s50.666 -8.83301 81.999 -23.5s61.5 -27.5 90.5 -38.5s47.5 -2.16699 55.5 26.5c2 10 7.66699 17.5 17 22.5s18.833 7.33301 28.5 7s17.834 -3.5 24.501 -9.5
s8.66699 -14 6 -24c-8.66699 -32 -21.167 -55.333 -37.5 -70s-33.666 -23 -51.999 -25s-36.666 1.16699 -54.999 9.5s-34.166 20.166 -47.499 35.499c22 -122 10.167 -202.667 -35.5 -242s-100.167 -52.333 -163.5 -39s-122.5 45.5 -177.5 96.5s-81.167 106.5 -78.5 166.5
c2 41.333 11.833 75.166 29.5 101.499s42.167 47.166 73.5 62.499s68.833 25.833 112.5 31.5s92.5 8.5 146.5 8.5z" />
    <glyph glyph-name="p" unicode="p" horiz-adv-x="562" 
d="M83 393c0 11.333 7.16602 20.502 21.499 27.502s30.166 11.5 47.499 13.5s33.333 0.833008 48 -3.5s22 -11.5 22 -21.5c1.33301 -14.667 0 -48 -4 -100c32 40 67.167 68.833 105.5 86.5s73.5 25.167 105.5 22.5s58.167 -14.834 78.5 -36.501s28.5 -51.5 24.5 -89.5
c-3.33301 -34 -18 -69.833 -44 -107.5s-55 -71.5 -87 -101.5s-63.5 -52.667 -94.5 -68s-53.5 -18.666 -67.5 -9.99902c-20 11.333 -24.333 23.5 -13 36.5s28.166 29.833 50.499 50.5s45.333 46.5 69 77.5s37.834 69.833 42.501 116.5c2 22 1.5 37.167 -1.5 45.5
s-6.83301 13.333 -11.5 15s-9.5 1.16699 -14.5 -1.5s-8.5 -4.33398 -10.5 -5.00098c-20 -14 -38.5 -34.333 -55.5 -61s-32 -54.834 -45 -84.501s-24.167 -58.167 -33.5 -85.5s-16.333 -49 -21 -65c-1.33301 -4.66699 -3.16602 -26.167 -5.49902 -64.5
s-5.66602 -80.5 -9.99902 -126.5s-10 -88.333 -17 -127s-15.5 -60 -25.5 -64c-4.66699 -0.666992 -12.667 -1.33398 -24 -2.00098s-23 -1 -35 -1s-22.833 0.666992 -32.5 2s-15.167 3.33301 -16.5 6c-13.333 20 -21.833 46.5 -25.5 79.5s-4 67.833 -1 104.5
s9.33301 72.834 19 108.501s21.5 66.834 35.5 93.501c1.33301 27.333 3.33301 59.666 6 96.999s5.5 73.333 8.5 108l8 90.5c2.33301 25.667 3.5 40.5 3.5 44.5z" />
    <glyph glyph-name="q" unicode="q" horiz-adv-x="601" 
d="M296 258c-14 6 -21.833 17.332 -23.5 33.999s-3.83398 25 -6.50098 25c-12 -2.66699 -25.333 -15.167 -40 -37.5s-28 -47 -40 -74s-21.333 -52.5 -28 -76.5s-7.66699 -39 -3 -45c14 -4 27.5 -1.66699 40.5 7s25 19.667 36 33s20.333 26.833 28 40.5
s12.834 23.834 15.501 30.501c7.33301 24.667 14.333 45.667 21 63zM247 378.999c33.333 6.66699 61.667 -6.00488 85 -38.0049c6 8.66699 16 13.334 30 14.001s26.833 -3.66602 38.5 -12.999s19.167 -23.833 22.5 -43.5s-2 -45.5 -16 -77.5
c46 70.667 82.167 118.167 108.5 142.5s42.333 31.5 48 21.5s0.5 -33.667 -15.5 -71s-43.333 -82 -82 -134c-31.333 -41.333 -57.5 -92.833 -78.5 -154.5s-38.5 -123 -52.5 -184s-25.167 -116.167 -33.5 -165.5s-14.5 -82 -18.5 -98
c-4.66699 -17.333 -14.334 -29.666 -29.001 -36.999s-29.5 -10 -44.5 -8s-27.5 9.33301 -37.5 22s-13 30.334 -9 53.001l16.5 94.5l24 136.5c8.33301 47.333 16.5 91 24.5 131s14 67 18 81c-67.333 -38.667 -123.166 -46.167 -167.499 -22.5s-70 59.334 -77 107.001
s8 96.667 45 147s103.833 82.5 200.5 96.5z" />
    <glyph glyph-name="r" unicode="r" horiz-adv-x="569" 
d="M450 74c-21.333 -26 -45.501 -45.165 -72.501 -57.498s-53 -20.166 -78 -23.499s-47.333 -3 -67 1s-32.5 10 -38.5 18c-14 16 -19.333 36.667 -16 62s10.5 53 21.5 83s23.333 61.833 37 95.5s23.5 67.5 29.5 101.5c2 14.667 -2.33301 23.167 -13 25.5
s-23.334 2.5 -38.001 0.5s-29.167 -3.83301 -43.5 -5.5s-23.833 1.5 -28.5 9.5l-17 -35.5l-21.5 -43.5l-25.5 -52c-10 -16.667 -21.333 -28.167 -34 -34.5s-23 -7.5 -31 -3.5s-12.667 12.333 -14 25s4.33398 29.667 17.001 51l26.5 43c10.333 16.667 22.5 40 36.5 70
c-21.333 30 -29.666 61.833 -24.999 95.5s15.834 63 33.501 88s38.334 42.667 62.001 53s44.5 7.5 62.5 -8.5c8.66699 -9.33301 12.5 -23.5 11.5 -42.5s-4.5 -38.5 -10.5 -58.5s-12.833 -38.667 -20.5 -56s-13.834 -28.666 -18.501 -33.999
c16 -2.66699 38.5 -1.33398 67.5 3.99902s57.5 8 85.5 8s52 -6 72 -18s29.333 -36 28 -72c-1.33301 -18.667 -7.16602 -41.834 -17.499 -69.501s-21.5 -55.667 -33.5 -84l-33 -81c-10 -25.667 -15 -45.834 -15 -60.501c0 -14 8.83301 -14.667 26.5 -2s35.167 30 52.5 52
c16.667 21.333 31.667 43.166 45 65.499l35.5 60c10.333 17.667 20 31.167 29 40.5s17.5 11.333 25.5 6c12 -8.66699 16.167 -22 12.5 -40s-11.334 -37.5 -23.001 -58.5s-25.334 -42 -41.001 -63z" />
    <glyph glyph-name="s" unicode="s" horiz-adv-x="480" 
d="M80 250c-10.667 -20 -22.3369 -32.9971 -35.0039 -38.9971s-23 -7 -31 -3s-12.667 12.5 -14 25.5s3.33398 29.167 14.001 48.5c7.33301 12 19.333 33.833 36 65.5s32 62.5 46 92.5c-32.667 46.667 -46.667 84 -42 112s17 48 37 60s42.667 17.5 68 16.5
s42.333 -6.5 51 -16.5c8.66699 -14.667 10.167 -38.5 4.5 -71.5s-15.167 -66.167 -28.5 -99.5c10 -8 42.5 -31.167 97.5 -69.5s99.5 -82.333 133.5 -132s40.5 -99.834 19.5 -150.501s-102.5 -92.334 -244.5 -125.001c-27.333 -6 -54.166 -4.16699 -80.499 5.5
s-44.833 24.5 -55.5 44.5s-9.66699 44.333 3 73s44 59 94 91c10 6 19.833 7.5 29.5 4.5s17.334 -8 23.001 -15s8.33398 -14.833 8.00098 -23.5s-5.16602 -16 -14.499 -22c-56 -35.333 -81 -60.333 -75 -75s22.167 -19.167 48.5 -13.5s52.5 21.334 78.5 47.001
s31 61.5 15 107.5c-12 29.333 -29.667 60.166 -53 92.499l-70 93.5l-26.5 -54.5c-9.66699 -19.667 -21.834 -42.834 -36.501 -69.501z" />
    <glyph glyph-name="t" unicode="t" horiz-adv-x="583" 
d="M137 707c0 11.333 8.66504 19.835 25.998 25.502s36.833 8.5 58.5 8.5s41.5 -2.66699 59.5 -8s27 -13 27 -23c0 -6.66699 -0.166992 -16.5 -0.5 -29.5s-0.666016 -27.333 -0.999023 -43s-0.833008 -31.334 -1.5 -47.001s-1.66699 -29.167 -3 -40.5
c63.333 2 113 2.33301 149 1s53.333 -15 52 -41c-1.33301 -10.667 -12 -18 -32 -22s-42 -6.33301 -66 -7s-47 -0.5 -69 0.5s-36 1.5 -42 1.5c-20 -153.333 -29.167 -262.5 -27.5 -327.5s17.5 -90.167 47.5 -75.5c34 17.333 90.667 83.666 170 198.999
c6 8.66699 14.833 15.334 26.5 20.001s22.334 6 32.001 4s15.834 -7.66699 18.501 -17s-2 -24 -14 -44c-38 -60 -73.333 -108.167 -106 -144.5s-62 -62.833 -88 -79.5c-12 -8 -28 -13.833 -48 -17.5s-40.167 -6.16699 -60.5 -7.5s-39.333 -1.33301 -57 0
s-29.5 3.66602 -35.5 6.99902c-19.333 8.66699 -32.833 30.334 -40.5 65.001s-11.5 75 -11.5 121s2.66699 94.833 8 146.5s11 99.5 17 143.5c-47.333 -4.66699 -80 -3.66699 -98 3s-27.167 15 -27.5 25s4.66699 19 15 27s21.166 11 32.499 9c19.333 0 46 1 80 3
c2 11.333 3.66699 25.166 5 41.499s2.33301 32.5 3 48.5s1.16699 30.667 1.5 44s0.5 23.333 0.5 30z" />
    <glyph glyph-name="u" unicode="u" horiz-adv-x="697" 
d="M481 19c-18 -8 -36.8359 -13.166 -56.5029 -15.499s-38.167 -3 -55.5 -2s-32.333 3 -45 6s-21 6.5 -25 10.5c-8 6 -17.667 16.5 -29 31.5s-15.333 36.5 -12 64.5c-61.333 -52 -112.166 -80 -152.499 -84s-69.166 8 -86.499 36s-22.666 68 -15.999 120s27 108.333 61 169
c4.66699 9.33301 14.5 14.333 29.5 15s30.167 -1.33301 45.5 -6s28 -11.334 38 -20.001s12.667 -17.667 8 -27c-27.333 -52.667 -43.5 -97.667 -48.5 -135s-0.833008 -59 12.5 -65s34.833 7.16699 64.5 39.5s65.5 91.5 107.5 177.5c3.33301 9.33301 12.5 16.333 27.5 21
s30.5 6.5 46.5 5.5s29.167 -5.16699 39.5 -12.5s12.5 -18.666 6.5 -33.999c-4 -6.66699 -9.83301 -22 -17.5 -46s-14.5 -49 -20.5 -75s-9.83301 -50 -11.5 -72s2.16602 -34 11.499 -36c8 -2.66699 15.5 -5.33398 22.5 -8.00098s13.833 -2.66699 20.5 0
c18 7.33301 41.5 26.666 70.5 57.999s62.167 78 99.5 140c5.33301 8.66699 13.5 15.334 24.5 20.001s20.833 6 29.5 4s14.5 -7.5 17.5 -16.5s-0.833008 -22.5 -11.5 -40.5c-38 -64 -73.167 -114 -105.5 -150s-59.833 -59.333 -82.5 -70
c-3.33301 -1.33301 -5.66602 -2.33301 -6.99902 -3z" />
    <glyph glyph-name="v" unicode="v" horiz-adv-x="618" 
d="M165 336c-6.66699 -65.333 -8.16699 -124.5 -4.5 -177.5s12.5 -92.833 26.5 -119.5s32.667 -37.667 56 -33s51.333 32.667 84 84c-30 6.66699 -52 22.5 -66 47.5s-20.167 49.833 -18.5 74.5s10.834 44.5 27.501 59.5s40.667 15.833 72 2.5
c37.333 -17.333 60.333 -42.333 69 -75c19.333 -6.66699 38 -3.16699 56 10.5s35 28.5 51 44.5s31 29 45 39s27 8.33301 39 -5c7.33301 -12 6 -28 -4 -48s-25 -40 -45 -60s-42.667 -37 -68 -51s-50 -21 -74 -21c-6.66699 -15.333 -18.167 -31.833 -34.5 -49.5
s-34.333 -34.5 -54 -50.5s-39.167 -30.167 -58.5 -42.5s-35.333 -21.166 -48 -26.499c-50 -18.667 -90.167 -16.834 -120.5 5.49902s-52.833 54.5 -67.5 96.5s-23.334 88.667 -26.001 140s-2 96.333 2 135c2 18 11.167 31.333 27.5 40s34.333 13.5 54 14.5
s37.5 -1.5 53.5 -7.5s24.667 -15 26 -27zM342 157c0.666992 20 -7.66699 36.667 -25 50c0 -8.66699 2.16699 -18 6.5 -28s10.5 -17.333 18.5 -22z" />
    <glyph glyph-name="w" unicode="w" horiz-adv-x="748" 
d="M240 113c0 11.333 0.50293 26.835 1.50293 46.502s2.16699 36.5 3.5 50.5c2 18 10 30.333 24 37s28.833 9.16699 44.5 7.5s29.334 -6.5 41.001 -14.5s16.167 -18 13.5 -30c-5.33301 -18 -6.83301 -41 -4.5 -69s8.5 -50.167 18.5 -66.5s23.167 -21.333 39.5 -15
s36.166 35.166 59.499 86.499c-22 6 -40.5 19.833 -55.5 41.5s-24.167 43.167 -27.5 64.5s0.666992 38.166 12 50.499s32.666 11.833 63.999 -1.5c19.333 -8.66699 33.166 -24.334 41.499 -47.001s15.166 -42 20.499 -58c24.667 -26 46.334 -33.5 65.001 -22.5
s35.5 27.333 50.5 49l40.5 59c12 17.667 24 19.834 36 6.50098c7.33301 -12 6.83301 -29.667 -1.5 -53s-22 -45.666 -41 -66.999s-41.833 -37.666 -68.5 -48.999s-55 -11 -85 1c-14.667 -62.667 -49.334 -106.667 -104.001 -132c-24.667 -12 -50.167 -12.5 -76.5 -1.5
s-48.5 29.5 -66.5 55.5c-15.333 -18.667 -37.666 -36.667 -66.999 -54c-48.667 -30.667 -88 -39.334 -118 -26.001s-53 38.166 -69 74.499s-25.5 79 -28.5 128s-2.5 92.833 1.5 131.5c2 18 10.667 31.333 26 40s32 13.5 50 14.5s34.333 -1.5 49 -7.5s22.667 -15 24 -27
c-6.66699 -64 -11.334 -118 -14.001 -162s-1.16699 -75.667 4.5 -95s16 -25 31 -17s36.833 31.667 65.5 71zM475.003 219.002c0.666992 20 -7.66699 36.667 -25 50c0 -8.66699 2.16699 -18 6.5 -28s10.5 -17.333 18.5 -22z" />
    <glyph glyph-name="x" unicode="x" horiz-adv-x="429" 
d="M0 359c0 11.333 4.1709 21.332 12.5039 29.999s18.666 15 30.999 19s25.666 4.33301 39.999 1s27.166 -11 38.499 -23c2 -2.66699 7.33301 -8.66699 16 -18l28 -29.5l29 -30l19 -19.5c40 65.333 73.5 110.5 100.5 135.5s47.5 38.167 61.5 39.5s22 -5 24 -19
s-2 -27 -12 -39c-2 -2 -9.16699 -11.333 -21.5 -28l-40.5 -55l-42.5 -58c-13.667 -18.667 -22.5 -31 -26.5 -37c7.33301 -10.667 20 -25 38 -43s35 -37.833 51 -59.5s27.833 -44 35.5 -67s5.16699 -44.5 -7.5 -64.5c-10 -14.667 -25.167 -16.667 -45.5 -6
s-41.5 26.334 -63.5 47.001s-42.667 42.5 -62 65.5s-32.333 39.167 -39 48.5c-25.333 -36 -40.166 -62.167 -44.499 -78.5s-5.16602 -28.333 -2.49902 -36s5.33398 -13.5 8.00098 -17.5s-2 -12 -14 -24c-8.66699 -8 -19.834 -11.333 -33.501 -10s-23.334 9.5 -29.001 24.5
s-3.83398 38.5 5.49902 70.5s32.333 74.333 69 127l-32.5 37l-41 47c-13.667 16 -25.334 30.5 -35.001 43.5s-14.5 21.833 -14.5 26.5z" />
    <glyph glyph-name="y" unicode="y" horiz-adv-x="821" 
d="M203 391c2.66699 11.333 13.6709 19.668 33.0039 25.001s40 8 62 8s41.5 -3 58.5 -9s24.833 -14 23.5 -24c-30.667 -85.333 -45 -142.166 -43 -170.499s11 -41.166 27 -38.499s33.833 14.667 53.5 36s31.834 39.666 36.501 54.999c2 6 3.16699 14.5 3.5 25.5
s1.33301 22.5 3 34.5s4.66699 22.833 9 32.5s12.166 16.5 23.499 20.5c4 2 12.167 2.83301 24.5 2.5s25.5 -1.5 39.5 -3.5s26.833 -4.66699 38.5 -8s18.834 -7 21.501 -11c13.333 -46.667 7.33301 -88.667 -18 -126c1.33301 -6.66699 2.16602 -17.334 2.49902 -32.001
s0.5 -31 0.5 -49v-55.5v-49.5c15.333 2.66699 25.666 1 30.999 -5s7.16602 -13.5 5.49902 -22.5s-5.83398 -17.833 -12.501 -26.5s-14.667 -14.334 -24 -17.001c-2.66699 -32.667 -5.83398 -68.5 -9.50098 -107.5s-7.5 -76.667 -11.5 -113s-8.33301 -69.833 -13 -100.5
s-9 -54 -13 -70c-58 -194 -141 -292.5 -249 -295.5s-191 39.167 -249 126.5s-66.833 194.5 -26.5 321.5s180.5 223.167 420.5 288.5v40c0 10.667 0.166992 20.834 0.5 30.501s0.833008 19.667 1.5 30s1 23.5 1 39.5c-42 -30 -83.833 -54.833 -125.5 -74.5
s-76.5 -25.334 -104.5 -17.001s-45.5 36 -52.5 83s3.5 122.5 31.5 226.5zM406.004 -374.998c2 12.667 4.83301 31.832 8.5 57.499s7.5 54.5 11.5 86.5s7.5 64.833 10.5 98.5s5.5 64.834 7.5 93.501c-190 -55.333 -305.167 -134 -345.5 -236s-43.5 -187 -9.5 -255
s86.833 -99.167 158.5 -93.5s124.5 88.5 158.5 248.5z" />
    <glyph glyph-name="z" unicode="z" horiz-adv-x="839" 
d="M270 173c-6 -11.333 -13.9951 -18.499 -23.9951 -21.499s-19.333 -3.33301 -28 -1s-15.334 7.33301 -20.001 15s-4.33398 16.834 0.999023 27.501c52 112.667 114.5 183.667 187.5 213s133.333 33.666 181 12.999s70.667 -58.334 69 -113.001s-50.834 -110 -147.501 -166
c18 -0.666992 35 -5.66699 51 -15s31 -20.333 45 -33s26.5 -26.167 37.5 -40.5l28.5 -37.5c39.333 13.333 68.166 19 86.499 17s30.166 -7 35.499 -15s6 -16.333 2 -25s-8.33301 -14 -13 -16c-3.33301 0 -9.33301 -1 -18 -3s-18 -4.33301 -28 -7s-19.833 -5.66699 -29.5 -9
s-16.5 -6.33301 -20.5 -9c6 -41.333 11.167 -95 15.5 -161s-2.66699 -134 -21 -204s-53.833 -136.333 -106.5 -199s-133 -111.334 -241 -146.001c-87.333 -27.333 -161 -15.666 -221 35.001s-90.5 118.167 -91.5 202.5s35.167 174.833 108.5 271.5s201 177.667 383 243
c-8 24.667 -17.833 46.667 -29.5 66s-24.167 35.333 -37.5 48c-28 -14 -49.667 -16.833 -65 -8.5s-24 19.5 -26 33.5s3.66699 27.167 17 39.5s35 15.5 65 9.5c38 26 59.667 56.667 65 92s-0.666992 60.333 -18 75s-43.333 11.5 -78 -9.5s-73 -74.833 -115 -161.5z
M464.005 -448.999c21.333 83.333 35 155.667 41 217s6.66699 113 2 155c-48 -16 -88 -35 -120 -57s-54.667 -38 -68 -48c-144.667 -116.667 -224.5 -219.667 -239.5 -309s0.5 -151.833 46.5 -187.5s105.667 -37.667 179 -6s126.333 110.167 159 235.5z" />
    <glyph glyph-name=".null" horiz-adv-x="0" 
 />
    <glyph glyph-name="nonmarkingreturn" horiz-adv-x="600" 
 />
    <glyph glyph-name="glyph11" horiz-adv-x="637" 
d="M132 460c-2 -84.667 1.16797 -153.498 9.50098 -206.498s20.5 -94.5 36.5 -124.5s35.833 -50 59.5 -60s49.5 -14.667 77.5 -14c46 0 82.667 34.667 110 104s42 145.333 44 228s-10 158.5 -36 227.5s-69.333 103.5 -130 103.5c-30 0 -55.5 -9.33301 -76.5 -28
s-38.5 -41.334 -52.5 -68.001s-24.333 -54.834 -31 -84.501s-10.334 -55.5 -11.001 -77.5zM299.001 -4.99805c-87.333 -2 -157.667 36.334 -211 115.001s-82.5 166 -87.5 262s17 185 66 267s132.5 125 250.5 129c106 2.66699 181.833 -35.666 227.5 -114.999
s65.5 -167.333 59.5 -264s-35.5 -185.834 -88.5 -267.501s-125.167 -123.834 -216.5 -126.501z" />
    <glyph glyph-name="glyph12" horiz-adv-x="640" 
d="M417 636c0 11.333 5.16406 19.3359 15.4971 24.0029s22.166 6.66699 35.499 6s25.666 -4.16699 36.999 -10.5s18 -14.5 20 -24.5c0 -2 -5.16699 -19.333 -15.5 -52s-22.166 -73.667 -35.499 -123c14 0 29.333 0.333008 46 1s32 0.333984 46 -0.999023
s25.5 -4.33301 34.5 -9s12.833 -12.667 11.5 -24c-3.33301 -24 -19.666 -35.333 -48.999 -34s-66.666 1.33301 -111.999 0c-10 -28.667 -18 -57.667 -24 -87c18 0 37.167 0.5 57.5 1.5s39.333 0.666992 57 -1s32.334 -5.16699 44.001 -10.5s17.5 -14.666 17.5 -27.999
c-3.33301 -24 -22.5 -34.333 -57.5 -31s-82.167 4.33301 -141.5 3c-12 -36.667 -20.833 -70.5 -26.5 -101.5s-12.834 -57.5 -21.501 -79.5s-21.667 -38.333 -39 -49s-44 -14.334 -80 -11.001c-14 12 -15 34.833 -3 68.5s30 89.5 54 167.5l-82 -4
c-11.333 -35.333 -21.166 -69 -29.499 -101s-17.666 -59 -27.999 -81s-23.333 -36.667 -39 -44s-36.5 -4 -62.5 10c-14 10 -15 29.833 -3 59.5s29 80.5 51 152.5c-10 0 -20.667 -0.666992 -32 -2s-21.666 -1.33301 -30.999 0s-17 4.66602 -23 9.99902s-9 14 -9 26
c0 21.333 12.667 32.166 38 32.499s52.333 0.5 81 0.5l30 86c-16 0 -32.167 -0.5 -48.5 -1.5s-31.333 -0.833008 -45 0.5s-24.667 4.66602 -33 9.99902s-12.5 14 -12.5 26c0 23.333 15.5 34.833 46.5 34.5s67.833 0.5 110.5 2.5c26 79.333 43.667 137.666 53 174.999
s25 57 47 59c24 -2 40.167 -8.33301 48.5 -19s11.5 -25.667 9.5 -45s-7.83301 -42.833 -17.5 -70.5s-19.5 -59.167 -29.5 -94.5c27.333 -0.666992 54.666 0.333008 81.999 3zM257.997 382.003l-28 -89l81 4l29 89z" />
    <glyph glyph-name="glyph41" 
d="M50 132c15.333 0 28.5 -5.66699 39.5 -17s16.5 -25.666 16.5 -42.999c0 -18 -5.5 -33.5 -16.5 -46.5s-24.167 -19.5 -39.5 -19.5c-16 0 -29.167 6.5 -39.5 19.5s-15.5 28.5 -15.5 46.5c0 17.333 5.16699 31.666 15.5 42.999s23.5 17 39.5 17z" />
    <glyph glyph-name="glyph42" 
d="M55 372c15.333 0 28.5 -5.66699 39.5 -17s16.5 -25.666 16.5 -42.999c0 -18 -5.5 -33.5 -16.5 -46.5s-24.167 -19.5 -39.5 -19.5c-16 0 -29.167 6.5 -39.5 19.5s-15.5 28.5 -15.5 46.5c0 17.333 5.16699 31.666 15.5 42.999s23.5 17 39.5 17zM55 132
c15.333 0 28.5 -5.66699 39.5 -17s16.5 -25.666 16.5 -42.999c0 -18 -5.5 -33.5 -16.5 -46.5s-24.167 -19.5 -39.5 -19.5c-16 0 -29.167 6.5 -39.5 19.5s-15.5 28.5 -15.5 46.5c0 17.333 5.16699 31.666 15.5 42.999s23.5 17 39.5 17z" />
    <glyph glyph-name="glyph60" horiz-adv-x="665" 
d="M95 226c-25.333 -30 -17.6709 -59.332 22.9961 -87.999s90 -47 148 -55s113 -1 165 21s77 69.333 75 142c-4 106.667 -20.333 171 -49 193s-63 25 -103 9s-82 -38.833 -126 -68.5s-83 -43.167 -117 -40.5c-62 4 -93.833 30.667 -95.5 80s18.166 128.333 59.499 237
c0 6 4.33301 10.333 13 13s18.5 4.66699 29.5 6s21.667 2.16602 32 2.49902s17.5 0.5 21.5 0.5c46 0 83.333 0.166992 112 0.5s55.834 0.833008 81.501 1.5s40.5 1 44.5 1c6 0 16.833 1.33301 32.5 4s31.334 4 47.001 4s28.834 -2.33301 39.501 -7
s14.334 -14.667 11.001 -30c-4 -12.667 -21.5 -22 -52.5 -28s-65.5 -10 -103.5 -12s-74.833 -2.66699 -110.5 -2s-59.834 1 -72.501 1c-35.333 -97.333 -55.166 -157 -59.499 -179s3.5 -26.333 23.5 -13l92.5 62c41.667 28 91.5 43.333 149.5 46c24 0 48.5 -4 73.5 -12
s48.167 -22 69.5 -42s39.333 -47.333 54 -82s23.334 -79 26.001 -133c3.33301 -104 -36 -172.167 -118 -204.5s-167.167 -41.5 -255.5 -27.5s-160.333 44.5 -216 91.5s-56.167 98.5 -1.5 154.5c10 10 20.667 15.5 32 16.5s20.5 -1.33301 27.5 -7s10.833 -13.5 11.5 -23.5
s-4 -20.667 -14 -32z" />
    <glyph glyph-name="glyph61" horiz-adv-x="547" 
d="M513 656c10 -6.66699 15.499 -14.502 16.499 -23.502s-1.16699 -16.833 -6.5 -23.5s-12.833 -11.167 -22.5 -13.5s-19.5 -0.166016 -29.5 6.50098c-50 31.333 -94.5 42.833 -133.5 34.5s-72.5 -27.5 -100.5 -57.5s-50.5 -66.167 -67.5 -108.5
s-28.5 -82.166 -34.5 -119.499c50.667 36 104.334 47.333 161.001 34s102.834 -39 138.501 -77s54.167 -81.667 55.5 -131s-28 -91.666 -88 -126.999c-60 -36 -112.333 -52.667 -157 -50c-89.333 2 -153.833 36.667 -193.5 104s-56.5 142.166 -50.5 224.499
s35.333 159.5 88 231.5s128 114 226 126c29.333 3.33301 60.166 4.83301 92.499 4.5s67.5 -11.833 105.5 -34.5zM125.999 246.998c4 -78 22.832 -129.333 56.499 -154s68.667 -33 105 -25s67.833 26.667 94.5 56s35.334 59 26.001 89c-6 21.333 -19.167 41.833 -39.5 61.5
s-43.5 33.5 -69.5 41.5s-53.333 8 -82 0s-54 -28.333 -76 -61c-3.33301 -2 -6 -3.83301 -8 -5.5s-4.33301 -2.5 -7 -2.5z" />
    <glyph glyph-name="glyph62" horiz-adv-x="506" 
d="M46 617c-12 -2.66699 -21.999 -1.16602 -29.999 4.50098s-13 12.5 -15 20.5s-1 16.333 3 25s12 14.334 24 17.001c3.33301 0 17.666 1.66699 42.999 5s55.5 6 90.5 8s71.5 2.33301 109.5 1s71.667 -6.33301 101 -15c14 -4.66699 29 -8.83398 45 -12.501s29.667 -9 41 -16
s18.333 -16.667 21 -29s-2 -29.166 -14 -50.499l-76.5 -130.5l-110 -187.5l-101.5 -171c-30 -50 -47 -77 -51 -81c1.33301 -1.33301 -5.16699 -3.16602 -19.5 -5.49902s-29 -2.5 -44 -0.5s-26.333 9 -34 21s-4.16699 32.333 10.5 61l65 121.5l88 163.5l89 155.5
c28.667 47.667 51.667 80.5 69 98.5c4 4.66699 -7 7.66699 -33 9s-57 1.66602 -93 0.999023s-71.5 -2.33398 -106.5 -5.00098s-58.833 -5.33398 -71.5 -8.00098z" />
    <glyph glyph-name="glyph63" horiz-adv-x="564" 
d="M427 698c10 -4.66699 16.167 -11.333 18.5 -20s1.66602 -16.834 -2.00098 -24.501s-9.66699 -13.5 -18 -17.5s-17.5 -3.66699 -27.5 1c-28 8.66699 -60.667 9.33398 -98 2.00098s-67 -22.833 -89 -46.5s-29.833 -54.834 -23.5 -93.501s39.5 -85 99.5 -139
c65.333 42.667 106.333 77.167 123 103.5s23.834 47.5 21.501 63.5s-6.83301 29.167 -13.5 39.5s-1 21.166 17 32.499c14 6.66699 33.333 4.33398 58 -6.99902s40.5 -30 47.5 -56s-2.33301 -58 -28 -96s-81.834 -80 -168.501 -126l85 -63.5
c30.667 -22.333 56.834 -44.833 78.501 -67.5s35.167 -45.667 40.5 -69s-4 -46.333 -28 -69c-28 -26 -76 -44.667 -144 -56s-134 -13 -198 -5s-114.333 27 -151 57s-38 74 -4 132c6 10 16.5 21.333 31.5 34s32.333 25.834 52 39.501s40.167 27 61.5 40l59 36.5
c-106 58.667 -163.5 114.167 -172.5 166.5s6.5 96.5 46.5 132.5s92.833 61.5 158.5 76.5s121.5 14.833 167.5 -0.5zM336 233.001c-9.33301 8 -18.833 15.668 -28.5 23.001s-18.167 14.333 -25.5 21c-13.333 -8.66699 -28 -18.834 -44 -30.501s-31.167 -23.5 -45.5 -35.5
s-26.833 -23 -37.5 -33s-17 -17.333 -19 -22c-31.333 -60 -25.333 -99 18 -117s90 -21 140 -9s87 36.333 111 73s1 80 -69 130z" />
    <glyph glyph-name="glyph64" horiz-adv-x="501" 
d="M352 592c-8.66699 0 -19.9971 4 -33.9971 12s-29.833 14.5 -47.5 19.5s-36.667 5.66699 -57 2s-40.833 -17.5 -61.5 -41.5c-22 -25.333 -40.333 -61.333 -55 -108s-21.334 -89.167 -20.001 -127.5s12.666 -65.333 33.999 -81s57 -5.16699 107 31.5
c15.333 11.333 29.666 28.333 42.999 51s25.833 48 37.5 76s22 56.667 31 86s16.5 56 22.5 80zM90.0029 621c33.333 38 73.1709 62.334 119.504 73.001s98.5 -1.33301 156.5 -36v0c4 0 13.5 5 28.5 15s29.5 17.333 43.5 22s24.167 2.5 30.5 -6.5
s3.16602 -32.833 -9.50098 -71.5c-19.333 -78 -29.5 -155.167 -30.5 -231.5s-6.83301 -144 -17.5 -203s-33.334 -105.667 -68.001 -140s-95.334 -49.5 -182.001 -45.5c-22 2.66699 -38.833 8.16699 -50.5 16.5s-17.834 16.833 -18.501 25.5s4.66602 16 15.999 22
s29 7.66699 53 5c40 -5.33301 70.833 -1 92.5 13s37.5 33.167 47.5 57.5s15.833 52.166 17.5 83.499s3.5 62 5.5 92c-28 -42 -62 -73.333 -102 -94s-77.667 -28 -113 -22s-63.833 26.667 -85.5 62s-28.5 88 -20.5 158c4.66699 38 14.334 75.333 29.001 112s34 67.667 58 93z
" />
    <glyph glyph-name="glyph65" horiz-adv-x="484" 
d="M64 409c-11.333 -6.66699 -22.002 -8.83496 -32.002 -6.50195s-17.833 6.83301 -23.5 13.5s-8.33398 14.5 -8.00098 23.5s5.5 16.833 15.5 23.5c90 54 160 99 210 135s86 63.333 108 82c26 22.667 49.667 36.334 71 41.001s36.666 2.83398 45.999 -5.49902
s10.833 -22.166 4.5 -41.499s-24.166 -41 -53.499 -65c-41.333 -48 -74.166 -122 -98.499 -222s-25.5 -221 -3.5 -363c-2 -12.667 -8.83301 -22 -20.5 -28s-24.5 -8.33301 -38.5 -7s-26.333 6.83301 -37 16.5s-16 24.5 -16 44.5c-9.33301 94 -15.666 178.667 -18.999 254
s9.33398 141.333 38.001 198c-20 -12.667 -41.833 -27.334 -65.5 -44.001s-49.5 -33 -77.5 -49z" />
    <glyph glyph-name="glyph66" horiz-adv-x="621" 
d="M163 478c11.333 -4 18.665 -9.99512 21.998 -17.9951s3.5 -16 0.5 -24s-8.66699 -14.333 -17 -19s-18.166 -5 -29.499 -1c-94.667 28 -140.667 64.5 -138 109.5s29.5 86.5 80.5 124.5s113.833 65.667 188.5 83s136.667 12 186 -16c50 -29.333 82.667 -61 98 -95
s13.833 -75.167 -4.5 -123.5s-54 -106.333 -107 -174s-122.833 -149.5 -209.5 -245.5c26.667 4 58.834 9.5 96.501 16.5s74.5 12.667 110.5 17s68.167 6.16602 96.5 5.49902s46.833 -6.66699 55.5 -18c8 -11.333 8.5 -24.5 1.5 -39.5s-17.167 -27.833 -30.5 -38.5
s-27.666 -17.5 -42.999 -20.5s-27.666 1.83301 -36.999 14.5c-5.33301 6 -7.5 12 -6.5 18s3.16699 12.333 6.5 19c-22 -4.66699 -52.833 -10.834 -92.5 -18.501s-80.334 -14.334 -122.001 -20.001s-79.834 -8.83398 -114.501 -9.50098s-57 3 -67 11
c-12 6 -18.833 13.833 -20.5 23.5s3.5 20.834 15.5 33.501c182 199.333 286.5 342.166 313.5 428.499s19.167 138.5 -23.5 156.5s-98.834 12.5 -168.501 -16.5s-110.167 -59.5 -121.5 -91.5c-5.33301 -12.667 -2.16602 -25.334 9.50098 -38.001s35.5 -24 71.5 -34z" />
    <glyph glyph-name="glyph67" horiz-adv-x="643" 
d="M207 595c3.33301 -11.333 1.83301 -20.5029 -4.5 -27.5029s-14.166 -11.5 -23.499 -13.5s-18.666 -0.666992 -27.999 4s-15 13 -17 25c-6 86 30.833 137.5 110.5 154.5s155.334 12.5 227.001 -13.5s115.5 -66.833 131.5 -122.5s-43 -112.5 -177 -170.5
c39.333 -6 74.833 -19.167 106.5 -39.5s56.5 -44.166 74.5 -71.499s27.833 -56.333 29.5 -87s-7.5 -60 -27.5 -88c-62 -86 -136 -136.333 -222 -151s-162.833 -8.5 -230.5 18.5s-115.334 68.167 -143.001 123.5s-15.5 111 36.5 167c8 8 16.833 11.833 26.5 11.5
s18.167 -3.16602 25.5 -8.49902s12 -12.166 14 -20.499s-1 -16.5 -9 -24.5c-36 -38 -46.5 -75 -31.5 -111s43.5 -61.833 85.5 -77.5s91.167 -16 147.5 -1s108.166 54.5 155.499 118.5c16 21.333 19.5 44 10.5 68s-23.333 47 -43 69s-40.5 41.333 -62.5 58l-47 35
c-16.667 12 -27.334 22.333 -32.001 31s6 18 32 28c84 37.333 123.167 72.833 117.5 106.5s-27.5 58.5 -65.5 74.5s-78.167 20.333 -120.5 13s-57.833 -33.333 -46.5 -78z" />
    <glyph glyph-name="glyph68" horiz-adv-x="533" 
d="M186 767c4 10 13.498 16.499 28.498 19.499s30.5 3.16699 46.5 0.5s29.667 -7.83398 41 -15.501s15.333 -16.5 12 -26.5c-4.66699 -12 -14.5 -41.667 -29.5 -89l-49.5 -158l-53.5 -171.5l-40.5 -127.5l67.5 12.5c19 3.66699 42.833 6.5 71.5 8.5
c10 69.333 24.333 116.5 43 141.5s36.667 37.667 54 38s31.833 -6.16699 43.5 -19.5s15.834 -23.333 12.501 -30c-8 -14.667 -14.333 -33.167 -19 -55.5l-14 -70.5c15.333 0 30.833 1 46.5 3s29 2.16699 40 0.5s18.667 -6 23 -13s2.5 -18.5 -5.5 -34.5
c0 -4 -3.33301 -8 -10 -12v0c-5.33301 -2 -11.166 -3.83301 -17.499 -5.5s-11.833 -1.5 -16.5 0.5c-3.33301 -2 -13.5 -3.5 -30.5 -4.5s-29.833 -1.5 -38.5 -1.5c-2 -18 -6.16699 -39.5 -12.5 -64.5s-14.666 -47.667 -24.999 -68s-23 -35.5 -38 -45.5
s-31.833 -9.33301 -50.5 2c-12 8.66699 -16.333 20.834 -13 36.501s7.66602 42.5 12.999 80.5c0 8 1 16.5 3 25.5s3 18.5 3 28.5c-74 -6.66699 -132.333 -15.5 -175 -26.5s-71 -12.167 -85 -3.5s-15.5 33.334 -4.5 74.001s33.5 110 67.5 208l37.5 117.5l33.5 110.5l26 87
c7.33301 24 12.333 40 15 48z" />
    <glyph glyph-name="glyph69" horiz-adv-x="169" 
d="M53 788c4 8.66699 12.499 14 25.499 16s25.833 1.5 38.5 -1.5s23.334 -8 32.001 -15s11 -14.833 7 -23.5c-29.333 -60.667 -44.5 -121 -45.5 -181s0.166992 -113.833 3.5 -161.5s2.83301 -86 -1.5 -115s-24.166 -42.5 -59.499 -40.5c-13.333 0 -22.5 4.33301 -27.5 13
s-8.33301 20.5 -10 35.5s-2.33398 32.5 -2.00098 52.5s-0.5 41.667 -2.5 65c-5.33301 56 -7.5 111.833 -6.5 167.5s17.167 118.5 48.5 188.5zM67.999 132c15.333 0 28.5 -5.66699 39.5 -17s16.5 -25.666 16.5 -42.999c0 -18 -5.5 -33.5 -16.5 -46.5
s-24.167 -19.5 -39.5 -19.5c-16 0 -29.167 6.5 -39.5 19.5s-15.5 28.5 -15.5 46.5c0 17.333 5.16699 31.666 15.5 42.999s23.5 17 39.5 17z" />
    <glyph glyph-name="glyph70" horiz-adv-x="304" 
d="M59 1087c-7.33301 13.333 -4.83203 24.9971 7.50098 34.9971s25.666 13 39.999 9s26 -17 35 -39s6.5 -58.333 -7.5 -109c-13.333 -50 -30 -82.333 -50 -97s-37.5 -20 -52.5 -16s-24.833 13 -29.5 27s1.33301 25 18 33c4 2 9 9.83301 15 23.5s11.333 28.834 16 45.501
s8 33.334 10 50.001s1.33301 29.334 -2 38.001zM210.001 1079c-7.33301 13.333 -4.83105 25.168 7.50195 35.501s25.666 14 39.999 11s26 -15.333 35 -37s6.5 -57.834 -7.5 -108.501c-13.333 -52 -30 -85.667 -50 -101s-37.667 -21 -53 -17s-25.333 13.333 -30 28
s1.66602 26.334 18.999 35.001c4 0 9 6.66699 15 20s11.333 28.666 16 45.999s8 34.333 10 51s1.33301 29 -2 37z" />
    <glyph glyph-name="glyph71" horiz-adv-x="543" 
d="M125 -183c0 -10 -6.49805 -17.8359 -19.498 -23.5029s-27 -8.5 -42 -8.5s-28.667 2.83301 -41 8.5s-18.5 13.5 -18.5 23.5c0 58 -1.33301 134.667 -4 230s3.5 189.166 18.5 281.499s44.667 173.166 89 242.499s113.5 106 207.5 110c40 1.33301 72.833 -7.5 98.5 -26.5
s41.834 -42.833 48.501 -71.5s3 -59.667 -11 -93s-40 -64 -78 -92c43.333 -4.66699 78.166 -24.667 104.499 -60s38.333 -74.833 36 -118.5s-22 -85.5 -59 -125.5s-97.5 -67 -181.5 -81c-38 -4.66699 -65 2.5 -81 21.5s-24 40.333 -24 64s6.33301 44.667 19 63
s28.667 24.5 48 18.5c14 -5.33301 20 -16.333 18 -33s-4 -32 -6 -46s0.666992 -23 8 -27s27.333 4.66699 60 26c34 20.667 55.333 45.334 64 74.001s10 55.834 4 81.501s-16.333 46.834 -31 63.501s-27 23.667 -37 21c-12.667 -10 -24 -17.667 -34 -23
s-20.833 -9.66602 -32.5 -12.999s-22.5 -3 -32.5 1c-20 6 -29.167 16 -27.5 30s12.5 25.333 32.5 34l40.5 20c11 5.33301 20.5 11.833 28.5 19.5s15.5 17 22.5 28s14.833 26.167 23.5 45.5c3.33301 8 7.16602 19.333 11.499 34s6.83301 29.334 7.5 44.001
s-1.83301 27.5 -7.5 38.5s-16.5 16.5 -32.5 16.5c-60.667 0 -104.834 -32.5 -132.501 -97.5s-45.667 -141.5 -54 -229.5s-11 -176.5 -8 -265.5s4.5 -157.5 4.5 -205.5z" />
    <glyph glyph-name="glyph72" horiz-adv-x="626" 
d="M413 636c6 -10 6.82812 -19.3301 2.49512 -27.9971s-10.5 -15.167 -18.5 -19.5s-17 -5.83301 -27 -4.5s-18 7.33301 -24 18c-24 37.333 -41.667 49.166 -53 35.499s-19 -37.5 -23 -71.5s-6 -70.5 -6 -109.5s-0.666992 -64.5 -2 -76.5c40 0 74.833 2.66699 104.5 8
s54.5 9 74.5 11s35 0.5 45 -4.5s16 -17.5 18 -37.5c0 -16.667 -8 -27.834 -24 -33.501s-30 -3.5 -42 6.5c-28.667 -2 -57.5 -5.33301 -86.5 -10s-58.833 -7 -89.5 -7c2.66699 -52 2.83398 -94 0.500977 -126s-7.16602 -65.333 -14.499 -100c12.667 -4 36.5 -9.5 71.5 -16.5
s71 -15.333 108 -25s70 -19.667 99 -30s43.5 -20.833 43.5 -31.5c-1.33301 -21.333 -15.666 -32.333 -42.999 -33c-26 10 -58 18.333 -96 25s-65 10.667 -81 12l-93 21.5c-24 5.66699 -50 12.834 -78 21.501c-29.333 -24 -60.666 -33.333 -93.999 -28
s-57.166 15.833 -71.499 31.5s-14.5 31.167 -0.5 46.5s54.667 20.666 122 15.999c4.66699 23.333 8.33398 52.166 11.001 86.499s2.66699 77.5 0 129.5c-40 4 -66.833 10.833 -80.5 20.5s-19.834 19.5 -18.501 29.5s7.66602 18.167 18.999 24.5s22 8.5 32 6.5
c8.66699 -5.33301 16.834 -8.66602 24.501 -9.99902l23.5 -4c3.33301 68 12 129.667 26 185s32.5 97.166 55.5 125.499s50.167 39.833 81.5 34.5s66 -35 104 -89z" />
    <glyph glyph-name="glyph73" horiz-adv-x="543" 
d="M1 751c-2 10 -0.00585938 18.166 5.99414 24.499s13.667 10 23 11s18.333 -0.666992 27 -5s14 -11.5 16 -21.5l59 -147.5l43.5 -106c13.667 -33 21.834 -52.5 24.501 -58.5c5.33301 -0.666992 10.666 -2.66699 15.999 -6c28 15.333 54.667 40.5 80 75.5l72 103.5
c22.667 34 44.334 61.667 65.001 83s40.667 26 60 14c19.333 -12.667 21.333 -28.667 6 -48s-33.666 -43.666 -54.999 -72.999c-16 -20 -31.333 -41.5 -46 -64.5s-29.167 -44.667 -43.5 -65s-29.166 -38.5 -44.499 -54.5s-31 -27.333 -47 -34v-44
c44 -1.33301 73.167 -6.5 87.5 -15.5s20.5 -18.333 18.5 -28s-9.16699 -17.5 -21.5 -23.5s-23.166 -6.66699 -32.499 -2h-52v-12v-11c44.667 -1.33301 74.667 -6.33301 90 -15s22.166 -17.667 20.499 -27s-8.5 -17 -20.5 -23s-22.667 -6.66699 -32 -2h-21.5h-36.5
c-2 -67.333 -8.66699 -113 -20 -137s-23.666 -36.5 -36.999 -37.5s-25.333 4.66699 -36 17s-16 21.5 -16 27.5c-1.33301 15.333 -1.66602 34.5 -0.999023 57.5s1 47.167 1 72.5c-16.667 0 -32.334 -0.333008 -47.001 -1s-24.334 6.33301 -29.001 21
c-4 11.333 -3.66699 20.166 1 26.499s11.334 11 20.001 14s18.5 4.83301 29.5 5.5s20.833 1 29.5 1v11c0 2.66699 -1.33301 6.66699 -4 12h-47.5c-15 0 -26.167 7.33301 -33.5 22c-4 12 -3.5 21.167 1.5 27.5s12.333 10.833 22 13.5s19.834 4.33398 30.501 5.00098
s19.667 1 27 1c0 32 -0.166992 52.833 -0.5 62.5s-2.66602 18.834 -6.99902 27.501s-11.833 22.167 -22.5 40.5s-26.334 52.166 -47.001 101.499c-4.66699 8.66699 -11 21.667 -19 39l-24 53.5c-8 18.333 -15.167 36 -21.5 53s-10.166 29.833 -11.499 38.5z" />
    <glyph glyph-name="glyph74" horiz-adv-x="561" 
d="M514 643c6 -8.66699 7.49902 -17.168 4.49902 -25.501s-8.33301 -14.666 -16 -18.999s-16.334 -6.33301 -26.001 -6s-17.5 4.83301 -23.5 13.5c-30 37.333 -56.333 56 -79 56s-42.834 -10 -60.501 -30s-33.167 -46.167 -46.5 -78.5l-37 -90.5
c15.333 0 31.5 0.833008 48.5 2.5s32.5 2.16699 46.5 1.5s25.667 -3.16699 35 -7.5s14 -12.166 14 -23.499c0 -12 -4.83301 -20.667 -14.5 -26s-22.167 -9 -37.5 -11s-32.666 -2.83301 -51.999 -2.5s-39 0.5 -59 0.5c-6 -12.667 -8.66699 -25 -8 -37
c18.667 0 37.834 0.833008 57.501 2.5s37.5 2.16699 53.5 1.5s29.167 -3.5 39.5 -8.5s15.5 -13.5 15.5 -25.5s-5.16699 -20.5 -15.5 -25.5s-23.5 -8.33301 -39.5 -10s-34.667 -2.16699 -56 -1.5s-43 1 -65 1c-4 -34 -4.66699 -66.167 -2 -96.5s10.667 -55.833 24 -76.5
s32.666 -34.834 57.999 -42.501s58 -5.5 98 6.5c9.33301 2.66699 17.333 10 24 22l20.5 38c7 13.333 14.833 25.5 23.5 36.5s19.667 16.5 33 16.5c24 0 35.333 -8.66699 34 -26s-8.66602 -36.666 -21.999 -57.999s-29.166 -41.333 -47.499 -60
s-32.166 -29.334 -41.499 -32.001c-66 -21.333 -121.333 -27.833 -166 -19.5s-80 26.5 -106 54.5s-43.833 62.833 -53.5 104.5s-12.5 84.5 -8.5 128.5c-19.333 0 -34.333 3.33301 -45 10s-16 14 -16 22s5.5 15.667 16.5 23s29.167 11 54.5 11c0 6 0.833008 12 2.5 18
s2.5 12.333 2.5 19c-29.333 0 -49.333 3.33301 -60 10s-15.834 14.167 -15.501 22.5s4.83301 16.166 13.5 23.499s18 11 28 11h52c18 50 42.167 97.5 72.5 142.5s64.5 79.333 102.5 103s78 32.334 120 26.001s83.667 -35.833 125 -88.5z" />
    <glyph glyph-name="glyph75" horiz-adv-x="471" 
d="M422 564c6 -10 7.50391 -19.334 4.50391 -28.001s-8.5 -15.167 -16.5 -19.5s-17 -6.16602 -27 -5.49902s-18 6 -24 16c-16 17.333 -33.667 31 -53 41c0 -31.333 1 -65.833 3 -103.5s3 -75.5 3 -113.5c16 -11.333 32.5 -22.166 49.5 -32.499s31.667 -22.5 44 -36.5
s21.666 -31 27.999 -51s7.5 -45 3.5 -75c-5.33301 -34 -19.833 -65 -43.5 -93s-54.5 -47 -92.5 -57c-1.33301 -47.333 -8.16602 -79.5 -20.499 -96.5s-25.666 -25.5 -39.999 -25.5s-27.333 5.33301 -39 16s-17.5 19.667 -17.5 27c0 12 -0.666992 22.667 -2 32
s-0.333008 23 3 41c-6 0 -21 2.33301 -45 7s-47.833 11.667 -71.5 21s-42.667 20.5 -57 33.5s-15.833 27.5 -4.5 43.5c9.33301 11.333 19.333 16.166 30 14.499s23 -6 37 -13l48.5 -23.5c18.333 -8.66699 40.166 -14 65.499 -16c0 40 0.666992 80.833 2 122.5
s0.666016 84.5 -2.00098 128.5c-50 34 -84.833 68.833 -104.5 104.5s-27.834 68.5 -24.501 98.5s16 55.667 38 77s49.333 35.333 82 42c0 23.333 -0.333008 44.833 -1 64.5s11 30.5 35 32.5c26 4 45.167 3.16699 57.5 -2.5s20.666 -13.5 24.999 -23.5s6.33301 -21.5 6 -34.5
s-0.5 -25.167 -0.5 -36.5c21.333 -5.33301 42.666 -14 63.999 -26s40.333 -28.667 57 -50zM185.004 573.999c-36 -12.667 -53 -36.168 -51 -70.501s20 -66.833 54 -97.5c0 30.667 -0.5 60.334 -1.5 89.001s-1.5 55 -1.5 79zM312.004 83.998
c14 8.66699 25.335 21.333 34.002 38s13.667 34.167 15 52.5s-1.83398 36.333 -9.50098 54s-20.834 32.167 -39.501 43.5v-188z" />
    <glyph glyph-name="glyph76" horiz-adv-x="493" 
d="M127 523c12.667 0 22.3311 -3.66797 28.998 -11.001s10 -15.166 10 -23.499s-3.33301 -15.833 -10 -22.5s-16.334 -10 -29.001 -10c-44 0 -76.667 9.33301 -98 28s-31 41.667 -29 69s17 56.166 45 86.499s69.667 56.5 125 78.5c48 18 96.833 22.167 146.5 12.5
s90.167 -44.5 121.5 -104.5c20 -40 16.667 -76.167 -10 -108.5s-59.334 -63.5 -98.001 -93.5s-74.667 -60 -108 -90s-47 -62 -41 -96c2 -11.333 -0.333008 -20.333 -7 -27s-14.5 -10.667 -23.5 -12s-17.667 0.5 -26 5.5s-13.166 13.5 -14.499 25.5
c-8.66699 44 -1.16699 82.5 22.5 115.5s50.334 62.833 80.001 89.5s55.667 51.167 78 73.5s27.833 44.5 16.5 66.5c-24 48 -55.167 72.167 -93.5 72.5s-71.166 -8.66699 -98.499 -27s-43.166 -39.166 -47.499 -62.499s15.5 -35 59.5 -35zM133.997 131.999
c15.333 0 28.5 -5.66699 39.5 -17s16.5 -25.666 16.5 -42.999c0 -18 -5.5 -33.5 -16.5 -46.5s-24.167 -19.5 -39.5 -19.5c-16 0 -29.167 6.5 -39.5 19.5s-15.5 28.5 -15.5 46.5c0 17.333 5.16699 31.666 15.5 42.999s23.5 17 39.5 17z" />
    <glyph glyph-name="glyph77" horiz-adv-x="456" 
d="M365 646c4.66699 10 11.832 16.167 21.499 18.5s19 2 28 -1s16 -8.5 21 -16.5s5.5 -17 1.5 -27c-31.333 -63.333 -67.166 -128.833 -107.499 -196.5l-131.5 -214.5c-4.66699 -7.33301 -13.667 -22.666 -27 -45.999l-44 -73.5c-16 -25.667 -32 -48.834 -48 -69.501
s-28.667 -32.334 -38 -35.001c-20.667 -2 -33 1.16699 -37 9.5s-4.16699 18.5 -0.5 30.5s9.16699 24.333 16.5 37s12.333 21.667 15 27l59 103l43.5 72l43.5 70.5l61 100.5l66 110c23.333 38.667 42.333 72.334 57 101.001z" />
    <glyph glyph-name="glyph78" horiz-adv-x="456" 
d="M75 646c-6 10 -14 16.168 -24 18.501s-19.333 2 -28 -1s-15.167 -8.5 -19.5 -16.5s-4.5 -17 -0.5 -27c30.667 -63.333 66.167 -128.833 106.5 -196.5l132.5 -214.5l25.5 -46c13 -23.333 27.5 -47.833 43.5 -73.5s32.167 -48.834 48.5 -69.501s29.5 -32.334 39.5 -35.001
c20 -2 32.167 1.16699 36.5 9.5s4.5 18.5 0.5 30.5s-9.66699 24.333 -17 37s-12 21.667 -14 27l-61 103l-43 72l-43 70.5l-60 100.5l-67 110c-23.333 38.667 -42 72.334 -56 101.001z" />
    <glyph glyph-name="glyph79" horiz-adv-x="533" 
d="M432 595c8 6.66699 16.8301 9.16895 26.4971 7.50195s17.5 -5.5 23.5 -11.5s9.5 -13.333 10.5 -22s-3.16699 -16.334 -12.5 -23.001c-17.333 -14 -47 -45.333 -89 -94s-85.167 -101.667 -129.5 -159s-84.166 -112.166 -119.499 -164.499s-54.666 -88.833 -57.999 -109.5
c-2.66699 -12 -8.66699 -20 -18 -24s-18.833 -5.33301 -28.5 -4s-17.667 5 -24 11s-8.16602 14.667 -5.49902 26c4 26 24.5 67.167 61.5 123.5s78.833 114.666 125.5 174.999s92.667 116.166 138 167.499s78.333 85 99 101zM88.9971 516.002
c-7.33301 -16.667 -11 -29 -11 -37s3 -13.833 9 -17.5s18 -0.5 36 9.5c12.667 6.66699 20.667 16.5 24 29.5s3 24 -1 33s-11 13.333 -21 13s-22 -10.5 -36 -30.5zM16.9971 437.002c-16.667 20 -21.667 42.5 -15 67.5s20 46.833 40 65.5s43.667 31.5 71 38.5s53 2.5 77 -13.5
c18.667 -14 29.667 -32.833 33 -56.5s0 -46.5 -10 -68.5s-26 -40.333 -48 -55s-49 -19.667 -81 -15c-14 1.33301 -26.833 5.33301 -38.5 12s-21.167 15 -28.5 25zM340.997 104.002c-7.33301 -17.333 -11.168 -29.999 -11.501 -37.999s2.5 -13.833 8.5 -17.5s18 -0.5 36 9.5
c12.667 6 20.834 15.333 24.501 28s3.5 23.667 -0.5 33s-11 14.166 -21 14.499s-22 -9.5 -36 -29.5zM271.995 19.0029c-17.333 20.667 -22.6699 43.833 -16.0029 69.5s19.834 48.167 39.501 67.5s43.167 32.5 70.5 39.5s53 2.5 77 -13.5c18.667 -14 29.834 -33 33.501 -57
s0.5 -47 -9.5 -69s-26 -40.333 -48 -55s-49 -20 -81 -16c-14 2 -26.667 6 -38 12s-20.666 13.333 -27.999 22z" />
    <glyph glyph-name="glyph80" horiz-adv-x="153" 
d="M76 781c0 8 -5.83398 16.5 -17.501 25.5s-23.167 12 -34.5 9s-19.166 -15.167 -23.499 -36.5s-0.166016 -58.333 12.501 -111c9.33301 -41.333 20.833 -68.333 34.5 -81s26.167 -17.5 37.5 -14.5s19.666 10.667 24.999 23s5 23.5 -1 33.5c-6 6.66699 -11.333 17 -16 31
s-8.16699 28.667 -10.5 44s-4 30 -5 44s-1.5 25 -1.5 33z" />
    <glyph glyph-name="glyph81" horiz-adv-x="144" 
d="M38 781c0 8 5.5 16.5 16.5 25.5s22.167 12 33.5 9s19.5 -15.167 24.5 -36.5s1.16699 -58.333 -11.5 -111c-10 -41.333 -22 -68.333 -36 -81s-26.5 -17.5 -37.5 -14.5s-19 10.667 -24 23s-4.5 23.5 1.5 33.5c6 6.66699 11 17 15 31s7.16699 28.667 9.5 44s4.33301 30 6 44
s2.5 25 2.5 33z" />
    <glyph glyph-name="glyph82" horiz-adv-x="766" 
d="M472 311c-28 6 -39.002 16.334 -33.002 31.001s19 24.334 39 29.001s41.5 -0.5 64.5 -15.5s38.167 -49.5 45.5 -103.5c5.33301 -30 0.666016 -62 -14.001 -96c12 -6.66699 29.333 -13.834 52 -21.501s47.334 -8.5 74.001 -2.5c26 6 41.833 3 47.5 -9s1.5 -24 -12.5 -36
s-37.333 -19.333 -70 -22s-74 8 -124 32c-36 -44 -84.667 -74.833 -146 -92.5s-121.166 -22.667 -179.499 -15s-108.833 28.5 -151.5 62.5s-64 81.333 -64 142c0 32.667 7 61.167 21 85.5s32.167 45.666 54.5 63.999s47.833 34.833 76.5 49.5l87 43
c-11.333 34 -15.166 67.5 -11.499 100.5s13.5 61.5 29.5 85.5s38.333 41.167 67 51.5s62.667 10.5 102 0.5c43.333 -12 72.5 -30.667 87.5 -56s17.667 -52 8 -80s-30.5 -54.667 -62.5 -80s-73.333 -44.333 -124 -57c19.333 -34 44 -69 74 -105s64 -67.333 102 -94
c1.33301 8.66699 1.33301 19 0 31s-4 23.667 -8 35s-8.66699 21 -14 29s-11 12.667 -17 14zM411.998 89.001c28 13.333 49.999 28.666 65.999 45.999c-46 30.667 -87.167 67.834 -123.5 111.501s-65.166 85.5 -86.499 125.5c-58 -28.667 -95 -65.167 -111 -109.5
s-15.833 -84.5 0.5 -120.5s46.833 -61.5 91.5 -76.5s99 -7.16699 163 23.5zM332.997 483.001c20 9.33301 35.667 22.335 47 39.002s18.333 33.167 21 49.5s1 30.833 -5 43.5s-16.667 19.334 -32 20.001c-11.333 -0.666992 -21.5 -7.33398 -30.5 -20.001
s-16.167 -27.834 -21.5 -45.501s-8 -35.667 -8 -54s3.33301 -33.5 10 -45.5c2.66699 1.33301 9 5.66602 19 12.999z" />
    <glyph glyph-name="glyph83" horiz-adv-x="835" 
d="M408 308c-14.667 31.333 -31.333 41.668 -50 31.001s-35.667 -29.667 -51 -57s-27 -56.333 -35 -87s-9 -50.334 -3 -59.001c1.33301 -2.66699 7.5 -2.5 18.5 0.5s23.333 8.83301 37 17.5s26.834 20.167 39.501 34.5s21 31.166 25 50.499
c4.66699 12 8.16699 24.333 10.5 37s5.16602 23.334 8.49902 32.001zM349.001 408.002c13.333 4.66699 28.5039 5.33105 45.5039 1.99805s32.5 -11 46.5 -23c11.333 20.667 22.666 30.667 33.999 30s21.166 -7.16699 29.499 -19.5s14.5 -28.166 18.5 -47.499
s4.33301 -37 1 -53c-2 -2.66699 -9 -15.667 -21 -39s-22.167 -47 -30.5 -71s-11.333 -42.833 -9 -56.5s16.833 -11.834 43.5 5.49902c48.667 30 77.334 71.5 86.001 124.5s1.16699 101.5 -22.5 145.5s-60.834 76.167 -111.501 96.5s-111 12.5 -181 -23.5
c-78 -40.667 -131.333 -91.5 -160 -152.5s-39.334 -120.5 -32.001 -178.5s29 -108.833 65 -152.5s79.667 -69.167 131 -76.5c30 -4 66.833 -0.166992 110.5 11.5s86.667 28.667 129 51s80.833 49.5 115.5 81.5s58 67 70 105c11.333 41.333 23.666 68.833 36.999 82.5
s24.833 18.334 34.5 14.001s16 -16 19 -35s-0.166992 -40.5 -9.5 -64.5c-9.33301 -22 -17.833 -40.667 -25.5 -56s-16.334 -30 -26.001 -44s-20.834 -28.167 -33.501 -42.5l-48 -52.5c-28 -30 -64.833 -55.333 -110.5 -76s-92.667 -35.167 -141 -43.5
s-94.666 -10 -138.999 -5s-79.5 18.5 -105.5 40.5c-110 92.667 -163 187.167 -159 283.5s36.833 179 98.5 248s137.834 116.667 228.501 143s167 15.5 229 -32.5c82 -64 122.667 -131.167 122 -201.5s-19.334 -129.666 -56.001 -177.999s-80.167 -78.833 -130.5 -91.5
s-84.5 7 -102.5 59c-30 -25.333 -63 -40.333 -99 -45s-67 0 -93 14s-42.667 37.333 -50 70s2.33398 73.667 29.001 123c23.333 44 51.5 74.5 84.5 91.5s62.5 29.833 88.5 38.5z" />
    <glyph glyph-name="glyph84" horiz-adv-x="364" 
d="M28 648c-11.333 4.66699 -17.9971 11.3301 -19.9971 19.9971s-1 16.834 3 24.501s10.5 13.334 19.5 17.001s19.167 3.16699 30.5 -1.5c60 -26 104.833 -39 134.5 -39s51.5 3.66699 65.5 11s24.667 13.333 32 18s19 -1 35 -17c8 -8.66699 9.16699 -21.167 3.5 -37.5
s-12.667 -40.833 -21 -73.5s-15.5 -75.834 -21.5 -129.501s-5.33301 -122.167 2 -205.5c3.33301 -42 8.66602 -81 15.999 -117s12.5 -66.833 15.5 -92.5s1.66699 -44.834 -4 -57.501s-19.5 -16.667 -41.5 -12v0c-46 12.667 -83.167 17.834 -111.5 15.501
s-51.5 -6.5 -69.5 -12.5s-32.667 -11.667 -44 -17s-22 -4.66602 -32 2.00098c-12 8.66699 -18.833 18.834 -20.5 30.501s3.66602 22.334 15.999 32.001s33.166 17.167 62.499 22.5s69 5.66602 119 0.999023c-20 98 -31 195.833 -33 293.5s9 190.5 33 278.5
c-24 -2 -46.167 -0.333008 -66.5 5s-54.5 19 -102.5 41z" />
    <glyph glyph-name="glyph85" horiz-adv-x="236" 
d="M45 941c-12 -6 -20.665 -7.33008 -25.998 -3.99707s-8 8.66602 -8 15.999s2.66699 15.333 8 24s13.666 15.667 24.999 21c57.333 31.333 95.333 25.666 114 -17.001s29.167 -96.167 31.5 -160.5s2.16602 -126.5 -0.500977 -186.5s3.33301 -92 18 -96
c16 -6.66699 24.333 -17.834 25 -33.501s-8.66602 -25.834 -27.999 -30.501v0c-14 -5.33301 -20.833 -18.666 -20.5 -39.999s3.16602 -46.666 8.49902 -75.999c4 -38 6.33301 -77.167 7 -117.5s-2.5 -78.5 -9.5 -114.5s-18.833 -67.833 -35.5 -95.5
s-40.334 -47.834 -71.001 -60.501c-13.333 -4.66699 -26.833 -4.16699 -40.5 1.5s-24.167 12.667 -31.5 21s-10.5 17.166 -9.5 26.499s9.83301 15.333 26.5 18v0c32.667 4.66699 50.667 28.334 54 71.001s2.5 90.667 -2.5 144s-8.83301 105 -11.5 155s6.33301 84.667 27 104
c-11.333 20.667 -17.666 53 -18.999 97s-1.5 89.5 -0.5 136.5s1.5 90.333 1.5 130s-4 65.5 -12 77.5c0.666992 0 -6 -3.66699 -20 -11z" />
    <glyph glyph-name="glyph86" horiz-adv-x="236" 
d="M187 941c10.667 -6 18.833 -7.33008 24.5 -3.99707s8.5 8.66602 8.5 15.999s-2.83301 15.333 -8.5 24s-13.5 15.667 -23.5 21c-58 31.333 -96.5 25.666 -115.5 -17.001s-29.667 -96.167 -32 -160.5s-2 -126.5 1 -186.5s-2.5 -92 -16.5 -96
c-16.667 -6.66699 -25.167 -17.834 -25.5 -33.501s9.16699 -25.834 28.5 -30.501v0c13.333 -5.33301 19.833 -18.666 19.5 -39.999s-2.83301 -46.666 -7.5 -75.999c-4.66699 -38 -7.5 -77.167 -8.5 -117.5s2 -78.5 9 -114.5s19 -67.833 36 -95.5
s41.167 -47.834 72.5 -60.501c12.667 -4.66699 25.667 -4.16699 39 1.5s24 12.667 32 21s11.333 17.166 10 26.499s-10 15.333 -26 18v0c-34 4.66699 -52.667 28.334 -56 71.001s-2.5 90.667 2.5 144s9 105 12 155s-5.5 84.667 -25.5 104c10 20.667 15.667 53 17 97
s1.5 89.5 0.5 136.5s-1.33301 90.333 -1 130s4.83301 65.5 13.5 77.5c-0.666992 0 6 -3.66699 20 -11z" />
    <glyph glyph-name="glyph87" horiz-adv-x="364" 
d="M307 648c10 4.66699 16 11.3301 18 19.9971s1 16.834 -3 24.501s-10.5 13.334 -19.5 17.001s-18.5 3.16699 -28.5 -1.5c-60.667 -26 -106 -39 -136 -39s-52 3.66699 -66 11s-24.5 13.333 -31.5 18s-18.167 -1 -33.5 -17c-8 -8.66699 -9.5 -21.167 -4.5 -37.5
s11.5 -40.833 19.5 -73.5s15.167 -75.834 21.5 -129.501s6.5 -122.167 0.5 -205.5c-4 -42 -9.83301 -81 -17.5 -117s-13 -66.833 -16 -92.5s-1.66699 -44.834 4 -57.501s20.167 -16.667 43.5 -12v0c44.667 12.667 81.167 17.834 109.5 15.501s51.5 -6.5 69.5 -12.5
s32.667 -11.667 44 -17s22.666 -4.66602 33.999 2.00098c11.333 8.66699 17.833 18.834 19.5 30.501s-3.66602 22.334 -15.999 32.001s-33 17.167 -62 22.5s-68.5 5.66602 -118.5 0.999023c19.333 98 30 195.833 32 293.5s-8.66699 190.5 -32 278.5
c23.333 -2 45.333 -0.333008 66 5s55 19 103 41z" />
    <glyph glyph-name="glyph88" horiz-adv-x="397" 
d="M193 937l2 -33c28 21.333 50.167 31.166 66.5 29.499s26.833 -7.5 31.5 -17.5s3.66699 -20.667 -3 -32s-19 -15.666 -37 -12.999c0 -2 -0.333008 -3.33301 -1 -4l-8 -8c21.333 0 43.333 -0.166992 66 -0.5s34 -11.166 34 -32.499c0 -11.333 -3.33301 -19.333 -10 -24
s-14.667 -7.5 -24 -8.5s-19.166 -0.833008 -29.499 0.5s-19.5 2 -27.5 2c20.667 -21.333 31.834 -38.5 33.501 -51.5s-1.5 -22.333 -9.5 -28s-18 -7.83398 -30 -6.50098s-21 6 -27 14c0 -28.667 -5.83301 -46.834 -17.5 -54.501s-23.167 -9.33398 -34.5 -5.00098
s-19.5 12.5 -24.5 24.5s-1.5 23.667 10.5 35c0 1.33301 -0.333008 6 -1 14s-2.33398 16.333 -5.00098 25c-20 -24 -32 -41 -36 -51s-14 -15 -30 -15s-26.333 3.33301 -31 10s-6.16699 14.667 -4.5 24s5.16699 18.833 10.5 28.5s10.333 17.834 15 24.501
c-22 -4 -39.5 -3.16699 -52.5 2.5s-19.5 12.667 -19.5 21s6.66699 17 20 26s37 15.5 71 19.5c-12 10 -25.833 20.333 -41.5 31s-16.5 24.334 -2.5 41.001c8.66699 12 19.667 16.5 33 13.5s24.666 -7.5 33.999 -13.5c-3.33301 8 -2.16602 14.833 3.50098 20.5
s14.5 11.167 26.5 16.5c8.66699 1.33301 18.167 -0.5 28.5 -5.5s17.166 -11.5 20.499 -19.5z" />
    <glyph glyph-name="glyph89" horiz-adv-x="292" 
d="M179 695c6 4 15.3311 5.50098 27.998 4.50098s23.667 -4.5 33 -10.5s14 -14.167 14 -24.5s-10 -22.5 -30 -36.5c-44 -32.667 -76.167 -74.5 -96.5 -125.5s-30.166 -104.5 -29.499 -160.5s11.167 -111.167 31.5 -165.5s48.5 -100.833 84.5 -139.5
c6 -6.66699 7.16699 -15.167 3.5 -25.5s-10.5 -18.5 -20.5 -24.5s-22.833 -7.16699 -38.5 -3.5s-32.834 16.834 -51.501 39.501c-37.333 48 -65.166 103.333 -83.499 166s-25.666 125.667 -21.999 189s19.667 123.166 48 179.499s71.5 102.166 129.5 137.499z" />
    <glyph glyph-name="glyph90" horiz-adv-x="292" 
d="M78 695c-6 4 -15.5 5.50098 -28.5 4.50098s-23.833 -4.5 -32.5 -10.5s-12.834 -14.167 -12.501 -24.5s10.833 -22.5 31.5 -36.5c44 -32.667 75.833 -74.5 95.5 -125.5s29 -104.5 28 -160.5s-11.333 -111.167 -31 -165.5s-47.167 -100.833 -82.5 -139.5
c-6 -6.66699 -7.66699 -15.167 -5 -25.5s9 -18.5 19 -24.5s22.667 -7.16699 38 -3.5s32.666 16.834 51.999 39.501c36.667 48 64.334 103.333 83.001 166s26 125.667 22 189s-20.167 123.166 -48.5 179.499s-71.166 102.166 -128.499 137.499z" />
    <glyph glyph-name="glyph91" horiz-adv-x="353" 
d="M102 497c0 11.333 3.99805 19.998 11.998 25.998s17 9 27 9s19.167 -3 27.5 -9s12.5 -14.667 12.5 -26c0 -12.667 0.5 -28.334 1.5 -47.001s1.5 -35 1.5 -49c57.333 -1.33301 95.833 -7 115.5 -17s28.667 -20.167 27 -30.5s-9.66699 -18.666 -24 -24.999
s-26.5 -6.16602 -36.5 0.500977c-3.33301 0 -12.5 0.833008 -27.5 2.5s-33.167 2.5 -54.5 2.5c0 -60 -7 -100 -21 -120s-28 -29 -42 -27s-24.333 10.5 -31 25.5s-2.66699 27.5 12 37.5c4.66699 1.33301 7.83398 8.16602 9.50098 20.499s2.5 33.5 2.5 63.5
c-28.667 -2 -53.167 -4.66699 -73.5 -8s-32.833 3.33398 -37.5 20.001c-4 12 -3.16699 21.333 2.5 28s14.334 11.5 26.001 14.5s24.5 4.83301 38.5 5.5s26.667 1 38 1c0 14 -1 32.333 -3 55s-3 38.334 -3 47.001z" />
    <glyph glyph-name="glyph92" horiz-adv-x="315" 
d="M43 332c-9.33301 -2 -18.666 -0.498047 -27.999 4.50195s-14 11.833 -14 20.5c-2.66699 10 -0.666992 19.167 6 27.5s14.667 13.5 24 15.5c21.333 1.33301 46.666 2 75.999 2h95c7.33301 -2 14.833 -2.83301 22.5 -2.5s17.5 0.5 29.5 0.5c8.66699 0 17 -3.33301 25 -10
s12 -15 12 -25c0 -8.66699 -4 -16.334 -12 -23.001s-16.333 -10 -25 -10c-10.667 1.33301 -29.667 2.66602 -57 3.99902c-31.333 0 -60.833 -0.333008 -88.5 -1s-49.5 -1.66699 -65.5 -3z" />
    <glyph glyph-name="glyph93" horiz-adv-x="172" 
d="M59 1087c-7.33301 13.333 -4.66992 24.9971 7.99707 34.9971s26.834 13 42.501 9s28.167 -17 37.5 -39s7 -58.333 -7 -109c-13.333 -50 -30.166 -82.333 -50.499 -97s-38.5 -20 -54.5 -16s-26.667 13 -32 27s0.333984 25 17.001 33c4 2 9 9.83301 15 23.5
s11.333 28.834 16 45.501s8 33.334 10 50.001s1.33301 29.334 -2 38.001z" />
    <glyph glyph-name="glyph94" horiz-adv-x="164" 
d="M59 70c-7.33301 13.333 -5.33398 25.668 5.99902 37.001s23.833 15.666 37.5 12.999s24.5 -15.334 32.5 -38.001s5 -61.334 -9 -116.001c-15.333 -50 -32.666 -82.167 -51.999 -96.5s-35.833 -19.5 -49.5 -15.5s-22 13.167 -25 27.5s3.83301 24.833 20.5 31.5
c4 2.66699 9 10.834 15 24.501s11.333 28.834 16 45.501s8 33.167 10 49.5s1.33301 28.833 -2 37.5z" />
    <glyph glyph-name="glyph95" horiz-adv-x="164" 
d="M59 70c-7.33301 13.333 -5.33301 24.998 6 34.998s23.833 13 37.5 9s24.5 -17 32.5 -39s5 -58.333 -9 -109c-13.333 -50 -29.5 -82.167 -48.5 -96.5s-35.5 -19.5 -49.5 -15.5s-23 13.167 -27 27.5s2.33301 24.833 19 31.5c4 2.66699 9 10.834 15 24.501
s11.333 28.834 16 45.501s8 33.167 10 49.5s1.33301 28.833 -2 37.5zM87 371.998c15.333 0 28.5 -5.66699 39.5 -17s16.5 -25.666 16.5 -42.999c0 -18 -5.5 -33.5 -16.5 -46.5s-24.167 -19.5 -39.5 -19.5c-16 0 -29.167 6.5 -39.5 19.5s-15.5 28.5 -15.5 46.5
c0 17.333 5.16699 31.666 15.5 42.999s23.5 17 39.5 17z" />
    <glyph glyph-name="glyph96" horiz-adv-x="397" 
d="M46 378c-14.667 -3.33301 -27.001 1.33301 -37.001 14v0c-11.333 13.333 -15.666 23.333 -12.999 30s8.83398 11.5 18.501 14.5s21 4.83301 34 5.5s23.833 1.66699 32.5 3c34 0 68.167 1 102.5 3s65.166 2.83301 92.499 2.5s49.5 -3 66.5 -8s25.5 -14.167 25.5 -27.5
c0 -14 -8.33301 -23.667 -25 -29s-38.334 -8.5 -65.001 -9.5s-57 -1 -91 0s-68.667 1.5 -104 1.5c-5.33301 0 -12.166 -0.5 -20.499 -1.5s-13.833 -0.5 -16.5 1.5zM50.999 235.999c-14.667 -4 -26.999 0.000976562 -36.999 12.001v0
c-11.333 13.333 -15.833 23.666 -13.5 30.999s8.16602 12.833 17.499 16.5s20.333 6 33 7s23.334 1.5 32.001 1.5c34 0 68.167 1.33301 102.5 4s65.166 4 92.499 4s49.5 -2.66699 66.5 -8s25.5 -15 25.5 -29s-8 -23.667 -24 -29s-37 -8.83301 -63 -10.5s-55.833 -2 -89.5 -1
s-68.167 1.5 -103.5 1.5h-21.5h-17.5z" />
    <glyph glyph-name="glyph97" horiz-adv-x="486" 
d="M25 465c-12 4 -19.5029 10.167 -22.5029 18.5s-3.33301 16.5 -1 24.5s7.83301 14.333 16.5 19s19 5 31 1c69.333 -24 131.666 -47.167 186.999 -69.5s120 -45.166 194 -68.499c16 -6.66699 24.333 -18 25 -34s-8.66602 -27 -27.999 -33
c-31.333 -8.66699 -70.5 -25.334 -117.5 -50.001s-92.5 -47.167 -136.5 -67.5s-81 -33.833 -111 -40.5s-43.667 4 -41 32c2.66699 10 17.834 22.5 45.501 37.5s60.5 30.833 98.5 47.5l79.5 36.5c27 12.333 52.5 24.833 76.5 37.5c-53.333 18 -103.666 36.5 -150.999 55.5
s-95.666 36.833 -144.999 53.5z" />
    <glyph glyph-name="glyph98" horiz-adv-x="486" 
d="M431 465c11.333 4 18.6641 10.167 21.9971 18.5s3.5 16.5 0.5 24.5s-8.66699 14.333 -17 19s-18.166 5 -29.499 1c-70 -24 -132.5 -47.167 -187.5 -69.5s-119.5 -45.166 -193.5 -68.499c-16.667 -6.66699 -25.167 -18 -25.5 -34s9.16699 -27 28.5 -33
c30.667 -8.66699 69.5 -25.334 116.5 -50.001s92.333 -47.167 136 -67.5s80.667 -33.833 111 -40.5s44.5 4 42.5 32c-3.33301 10 -18.666 22.5 -45.999 37.5s-60 30.833 -98 47.5l-80 36.5c-27.333 12.333 -52.666 24.833 -75.999 37.5c52.667 18 102.667 36.5 150 55.5
s96 36.833 146 53.5z" />
    <glyph glyph-name="glyph99" horiz-adv-x="437" 
d="M73 323c6 -10 7.49902 -19.332 4.49902 -27.999s-8.5 -15.167 -16.5 -19.5s-16.833 -6.16602 -26.5 -5.49902s-17.5 6 -23.5 16c-10.667 14 -13.5 37 -8.5 69s17.833 57.667 38.5 77s49.167 25 85.5 17s80.5 -44.667 132.5 -110c6 -8 12.167 -10 18.5 -6
s12.5 10.167 18.5 18.5s11.667 17.5 17 27.5s10.333 17.333 15 22c-19.333 12 -23.5 24.5 -12.5 37.5s25 20.5 42 22.5s31.167 -4 42.5 -18s7.66602 -41 -11.001 -81c-30 -62 -60.333 -94.167 -91 -96.5s-59.167 6.66699 -85.5 27s-49.666 43.166 -69.999 68.499
s-35.166 34.666 -44.499 27.999c-8 -6.66699 -14.167 -19 -18.5 -37s-6.5 -27.667 -6.5 -29z" />
    <glyph glyph-name="glyph100" horiz-adv-x="232" 
d="M103 811c0 -2.66699 -3 -8.33203 -9 -16.999s-11 -17.834 -15 -27.501s-5 -18 -3 -25s11 -10.5 27 -10.5c21.333 1.33301 33.166 10.833 35.499 28.5s-3.16699 39.167 -16.5 64.5c-3.33301 -2 -6.66602 -4.33301 -9.99902 -7s-6.33301 -4.66699 -9 -6zM8 715.002
c-11.333 24 -11.667 49.168 -1 75.501s26 48.833 46 67.5s41.833 30.667 65.5 36s42.167 -1.33398 55.5 -20.001c34 -49.333 47 -90.333 39 -123s-25 -56 -51 -70s-55 -18.333 -87 -13s-54.333 21 -67 47z" />
    <glyph glyph-name="glyph101" horiz-adv-x="260" 
d="M77 -10c-6 13.333 -4.5 24.0039 4.5 32.0039s19.5 11.5 31.5 10.5s22.5 -7.33301 31.5 -19s10.5 -31.167 4.5 -58.5c30.667 0 55 -12.333 73 -37s24.333 -49.334 19 -74.001s-24.666 -43.667 -57.999 -57s-85.666 -9.33301 -156.999 12c-12 4 -19.667 10 -23 18
s-3.83301 16 -1.5 24s7.66602 14.333 15.999 19s18.5 5 30.5 1c44 -13.333 74.167 -18.833 90.5 -16.5s25.166 7.16602 26.499 14.499s-1.83398 14.666 -9.50098 21.999s-13.5 9.66602 -17.5 6.99902c-34 -21.333 -58.5 -25.5 -73.5 -12.5s-15.5 32.833 -1.5 59.5
c2.66699 8.66699 6.33398 18 11.001 28s5.66699 19 3 27z" />
    <glyph glyph-name="glyph102" horiz-adv-x="271" 
d="M107 727c0 -2.66699 -3 -8.33203 -9 -16.999s-11 -17.834 -15 -27.501s-5 -18 -3 -25s11 -10.5 27 -10.5c21.333 1.33301 33.166 10.833 35.499 28.5s-3.16699 39.167 -16.5 64.5c-3.33301 -2 -6.66602 -4.33301 -9.99902 -7s-6.33301 -4.66699 -9 -6zM12 631.002
c-11.333 24 -11.667 49.168 -1 75.501s26 48.833 46 67.5s41.833 30.667 65.5 36s42.167 -1.33398 55.5 -20.001c34 -49.333 47 -90.333 39 -123s-25 -56 -51 -70s-55 -18.333 -87 -13s-54.333 21 -67 47z" />
    <glyph glyph-name="glyph103" horiz-adv-x="698" 
d="M43 -143c-9.33301 -1.33301 -18.668 0.501953 -28.001 5.50195s-14 11.5 -14 19.5c-2.66699 10 -0.666992 19.333 6 28s14.667 13.667 24 15c10 1.33301 44.667 2.16602 104 2.49902s124 0.5 194 0.5s136.333 -0.166992 199 -0.5s102.667 -0.5 120 -0.5
c7.33301 -1.33301 14.833 -2 22.5 -2h29.5c8.66699 0 17 -3.33301 25 -10s12 -15 12 -25c0 -8 -4 -15.5 -12 -22.5s-16.333 -10.5 -25 -10.5c-10.667 1.33301 -29.667 2.66602 -57 3.99902h-116h-196c-69.333 0 -132.666 -0.333008 -189.999 -1s-90 -1.66699 -98 -3z" />
    <glyph glyph-name="glyph104" horiz-adv-x="143" 
d="M0 1034c-1.33301 8.66699 0.333984 17.8291 5.00098 27.4961s11.334 14.5 20.001 14.5c10 2.66699 24.167 0.5 42.5 -6.5s28.5 -14.833 30.5 -23.5c0 -11.333 0.166992 -65.166 0.5 -161.499s0.5 -201.666 0.5 -315.999s0.166992 -221.166 0.5 -320.499
s0.5 -157 0.5 -173c-2 -8 -2.83301 -15.667 -2.5 -23s0.5 -17 0.5 -29c0 -9.33301 -8.33301 -17.833 -25 -25.5s-30 -11.5 -40 -11.5c-8.66699 0 -16.334 3.83301 -23.001 11.5s-10 16.167 -10 25.5c1.33301 10.667 2.66602 29.667 3.99902 57c0 15.333 -0.333008 72 -1 170
s-1 203.667 -1 317s-0.333008 217.333 -1 312s-1 146.334 -1 155.001z" />
    <glyph glyph-name="glyph105" horiz-adv-x="276" 
d="M187 620c4.66699 -11.333 11.335 -18.667 20.002 -22s16.834 -3.5 24.501 -0.5s13.5 8.5 17.5 16.5s4 18 0 30l-26 60.5c-4.66699 11 -9 20.667 -13 29s-9.16699 19.666 -15.5 33.999l-33.5 75.5c-6.66699 16 -18 24.333 -34 25s-27 -8.66602 -33 -27.999
c-8.66699 -31.333 -21.334 -62 -38.001 -92s-30.334 -56.5 -41.001 -79.5s-15.334 -41 -14.001 -54s15.666 -18.167 42.999 -15.5c4.66699 1.33301 10.5 8 17.5 20s14.5 26 22.5 42s15.833 32.833 23.5 50.5s14.834 32.5 21.501 44.5l15 -36.5l10 -24.5l12 -28.5
c4.66699 -11 11.667 -26.5 21 -46.5z" />
    </font>
</defs>
</svg>
