<?xml version="1.0" standalone="no"?>
<!DOCTYPE svg PUBLIC "-//W3C//DTD SVG 1.1//EN" "http://www.w3.org/Graphics/SVG/1.1/DTD/svg11.dtd" >
<svg>
<metadata>
Created by FontForge 20090914 at Thu Aug 20 13:22:44 2020
 By www-data
Copyright 2011 The Changa Project Authors (https://github.com/etunni/Changa)
</metadata>
<defs>
<font id="Changa-SemiBold" horiz-adv-x="0" >
  <font-face 
    font-family="Changa SemiBold"
    font-weight="600"
    font-stretch="normal"
    units-per-em="1000"
    panose-1="0 0 0 0 0 0 0 0 0 0"
    ascent="800"
    descent="-200"
    x-height="500"
    cap-height="625"
    bbox="-173.001 -582.001 1833 1157.29"
    underline-thickness="50"
    underline-position="-75"
    unicode-range="U+000D-U+FEFC"
  />
<missing-glyph horiz-adv-x="700" 
d="M30 0v625h640v-625h-640zM120 100h460v425h-460v-425z" />
    <glyph glyph-name="f_f" unicode="ff" horiz-adv-x="691" 
d="M249 0h-149.003v497c2.66699 45.333 8.83398 80.833 18.501 106.5s25.334 44 47.001 55s50.5 16.5 86.5 16.5c15.333 0 31.333 -0.833008 48 -2.5s34.334 -4.16699 53.001 -7.5l-9 -96l-95 9v-578zM319.997 500v-98h-280v98h280zM593.997 0h-149.003v497
c2.66699 45.333 8.83398 80.833 18.501 106.5s25.334 44 47.001 55s50.5 16.5 86.5 16.5c15.333 0 31.333 -0.833008 48 -2.5s34.334 -4.16699 53.001 -7.5l-9 -96l-95 9v-578zM664.994 500v-98h-280v98h280z" />
    <glyph glyph-name="fi" unicode="fi" horiz-adv-x="635" 
d="M249 0h-149.003v497c2.66699 45.333 8.83398 80.833 18.501 106.5s25.334 44 47.001 55s50.5 16.5 86.5 16.5c15.333 0 31.333 -0.833008 48 -2.5s34.334 -4.16699 53.001 -7.5l-9 -96l-95 9v-578zM319.997 500v-98h-280v98h280zM414.997 484l149 20v-504h-149v484z
M490.997 565c-32.667 0 -54.834 5.66699 -66.501 17s-17.5 33 -17.5 65c0 32.667 5.83301 54.834 17.5 66.501s33.834 17.5 66.501 17.5c31.333 0 52.833 -5.83301 64.5 -17.5s17.5 -33.834 17.5 -66.501c0 -32 -5.66699 -53.667 -17 -65s-33 -17 -65 -17z" />
    <glyph glyph-name="fl" unicode="fl" horiz-adv-x="635" 
d="M249 0h-149.003v497c2.66699 45.333 8.83398 80.833 18.501 106.5s25.334 44 47.001 55s50.5 16.5 86.5 16.5c15.333 0 31.333 -0.833008 48 -2.5s34.334 -4.16699 53.001 -7.5l-9 -96l-95 9v-578zM319.997 500v-98h-280v98h280zM561.997 108
c8 -1.33301 15.999 -2.5 23.999 -3.5s15.667 -1.83301 23 -2.5l-7 -101c-16.667 -4 -32.167 -7.16699 -46.5 -9.5s-28.166 -3.5 -41.499 -3.5c-34.667 0 -60.167 7.33301 -76.5 22s-24.5 37.667 -24.5 69v571l149 15v-557z" />
    <glyph glyph-name="f_f_i" unicode="ffi" horiz-adv-x="980" 
d="M249 0h-149.003v497c2.66699 45.333 8.83398 80.833 18.501 106.5s25.334 44 47.001 55s50.5 16.5 86.5 16.5c15.333 0 31.333 -0.833008 48 -2.5s34.334 -4.16699 53.001 -7.5l-9 -96l-95 9v-578zM319.997 500v-98h-280v98h280zM593.997 0h-149.003v497
c2.66699 45.333 8.83398 80.833 18.501 106.5s25.334 44 47.001 55s50.5 16.5 86.5 16.5c15.333 0 31.333 -0.833008 48 -2.5s34.334 -4.16699 53.001 -7.5l-9 -96l-95 9v-578zM664.994 500v-98h-280v98h280zM760.994 484l149 20v-504h-149v484zM836.994 565
c-32.667 0 -54.834 5.66699 -66.501 17s-17.5 33 -17.5 65c0 32.667 5.83301 54.834 17.5 66.501s33.834 17.5 66.501 17.5c31.333 0 52.833 -5.83301 64.5 -17.5s17.5 -33.834 17.5 -66.501c0 -32 -5.66699 -53.667 -17 -65s-33 -17 -65 -17z" />
    <glyph glyph-name="f_f_l" unicode="ffl" horiz-adv-x="980" 
d="M249 0h-149.003v497c2.66699 45.333 8.83398 80.833 18.501 106.5s25.334 44 47.001 55s50.5 16.5 86.5 16.5c15.333 0 31.333 -0.833008 48 -2.5s34.334 -4.16699 53.001 -7.5l-9 -96l-95 9v-578zM319.997 500v-98h-280v98h280zM593.997 0h-149.003v497
c2.66699 45.333 8.83398 80.833 18.501 106.5s25.334 44 47.001 55s50.5 16.5 86.5 16.5c15.333 0 31.333 -0.833008 48 -2.5s34.334 -4.16699 53.001 -7.5l-9 -96l-95 9v-578zM664.994 500v-98h-280v98h280zM907.994 108c8 -1.33301 15.999 -2.5 23.999 -3.5
s15.667 -1.83301 23 -2.5l-7 -101c-16.667 -4 -32.167 -7.16699 -46.5 -9.5s-28.166 -3.5 -41.499 -3.5c-34.667 0 -60.167 7.33301 -76.5 22s-24.5 37.667 -24.5 69v571l149 15v-557z" />
    <glyph glyph-name="uniFC64" unicode="&#xfe8c;&#xfeae;" horiz-adv-x="654" arabic-form="final" 
d="M68 -272l-45 106.002c26 12 46.167 25 60.5 39s24.333 32.167 30 54.5s8.5 51.166 8.5 86.499v456h119v-456c0 -50.667 -5.83301 -93.834 -17.5 -129.501s-30 -66.167 -55 -91.5s-58.5 -47 -100.5 -65zM240 336.002v134h209v-134h-209zM449 0.00195312v470h119v-336h86
v-134h-205zM654 0.00195312v134c6.66699 0 11.667 -6.16699 15 -18.5s5 -28.5 5 -48.5c0 -20.667 -1.66699 -37 -5 -49s-8.33301 -18 -15 -18zM392 577.002l0.00195312 57.999l40 11c-2.66699 8 -4.83398 16.833 -6.50098 26.5s-2.5 21.5 -2.5 35.5c0 36 7.16699 64 21.5 84
s34.666 34.5 60.999 43.5s56.833 14.5 91.5 16.5v-69c-16.667 -1.33301 -33 -3.66602 -49 -6.99902s-31.333 -8.33301 -46 -15v-66c0 -10.667 3 -17.5 9 -20.5s16.333 -2.5 31 1.5l82 22v-60z" />
    <glyph glyph-name="uniFC65" unicode="&#xfe8c;&#xfeb0;" horiz-adv-x="654" arabic-form="final" 
d="M68 -272l-45 106.002c26 12 46.167 25 60.5 39s24.333 32.167 30 54.5s8.5 51.166 8.5 86.499v456h119v-456c0 -50.667 -5.83301 -93.834 -17.5 -129.501s-30 -66.167 -55 -91.5s-58.5 -47 -100.5 -65zM240 336.002v134h209v-134h-209zM449 0.00195312v470h119v-336h86
v-134h-205zM654 0.00195312v134c6.66699 0 11.667 -6.16699 15 -18.5s5 -28.5 5 -48.5c0 -20.667 -1.66699 -37 -5 -49s-8.33301 -18 -15 -18zM392 577.002l0.00195312 57.999l40 11c-2.66699 8 -4.83398 16.833 -6.50098 26.5s-2.5 21.5 -2.5 35.5c0 36 7.16699 64 21.5 84
s34.666 34.5 60.999 43.5s56.833 14.5 91.5 16.5v-69c-16.667 -1.33301 -33 -3.66602 -49 -6.99902s-31.333 -8.33301 -46 -15v-66c0 -10.667 3 -17.5 9 -20.5s16.333 -2.5 31 1.5l82 22v-60zM181.002 587.001c-8.66699 0 -18.4971 4 -29.4971 12s-20.5 17.5 -28.5 28.5
s-12 20.833 -12 29.5c0 9.33301 4 19.333 12 30s17.5 20 28.5 28s20.833 12 29.5 12c9.33301 0 19.166 -4 29.499 -12s19.666 -17.333 27.999 -28s12.5 -20.667 12.5 -30c0 -8 -4.16699 -17.667 -12.5 -29s-17.833 -21 -28.5 -29s-20.334 -12 -29.001 -12z" />
    <glyph glyph-name="uniFC67" unicode="&#xfe8c;&#xfee6;" horiz-adv-x="1000" arabic-form="final" 
d="M796 0v470h119v-336h85v-134h-204zM587 336v134h209v-134h-209zM317 -240c-51.333 0 -93.501 3.50098 -126.501 10.501s-58.667 19.167 -77 36.5s-31 41.333 -38 72s-10.5 69.667 -10.5 117c0 28 1.16699 56.333 3.5 85s6 56.667 11 84s10.833 53 17.5 77l112 -18
c-8 -36.667 -14.167 -72 -18.5 -106s-6.5 -66.667 -6.5 -98c0 -26.667 0.833008 -49.834 2.5 -69.501s4.5 -38.167 8.5 -55.5h157c40.667 0 70.167 3.5 88.5 10.5s27.5 21.167 27.5 42.5v522h119v-484c0 -44.667 -3.5 -81.667 -10.5 -111s-20 -52.5 -39 -69.5
s-46.167 -28.833 -81.5 -35.5s-81.666 -10 -138.999 -10zM327.999 595.001c-8.66699 0 -18.332 4 -28.999 12s-20.167 17.5 -28.5 28.5s-12.5 20.833 -12.5 29.5c0 9.33301 4 19.333 12 30s17.5 20 28.5 28s20.833 12 29.5 12c9.33301 0 19.333 -4 30 -12s20 -17.333 28 -28
s12 -20.667 12 -30c0 -8 -4.16699 -17.667 -12.5 -29s-17.833 -21 -28.5 -29s-20.334 -12 -29.001 -12zM1000 0.000976562v134c7.33301 0 12.5 -6.16699 15.5 -18.5s4.5 -28.5 4.5 -48.5c0 -20.667 -1.5 -37 -4.5 -49s-8.16699 -18 -15.5 -18zM740.001 577.001
l0.00195312 57.999l40 11c-2.66699 8 -4.83398 16.833 -6.50098 26.5s-2.5 21.5 -2.5 35.5c0 36 7.16699 64 21.5 84s34.666 34.5 60.999 43.5s56.833 14.5 91.5 16.5v-69c-16.667 -1.33301 -33 -3.66602 -49 -6.99902s-31.333 -8.33301 -46 -15v-66
c0 -10.667 3 -17.5 9 -20.5s16.333 -2.5 31 1.5l82 22v-60z" />
    <glyph glyph-name="uniFC68" unicode="&#xfe8c;&#xfef0;" horiz-adv-x="1157" arabic-form="final" 
d="M952 0v470h120v-336h85v-134h-205zM65 -64c0 24 1.16699 48.8291 3.5 74.4961s6 50.5 11 74.5s10.833 46.333 17.5 67l116 -19c-8 -30.667 -14.833 -60.167 -20.5 -88.5s-8.5 -55.833 -8.5 -82.5c0 -23.333 0.833008 -43.5 2.5 -60.5s4.5 -33.5 8.5 -49.5h282
c48 0 86 1.33301 114 4s47.833 7.83398 59.5 15.501s17.5 18.834 17.5 33.501v154l-135 15c-45.333 5.33301 -80 15 -104 29s-40.5 34.667 -49.5 62s-13.5 62.666 -13.5 105.999c0 36.667 3 67.834 9 93.501s16.5 46.167 31.5 61.5s36 26.5 63 33.5s61.5 10.5 103.5 10.5
h379v-134h-459v-127l143 -15c40 -4 70.833 -12.833 92.5 -26.5s36.834 -33 45.501 -58s13 -56.833 13 -95.5v-75c0 -42.667 -5.5 -78.167 -16.5 -106.5s-30 -50.833 -57 -67.5s-64.667 -28.667 -113 -36s-109.5 -11 -183.5 -11c-70 0 -127.833 3 -173.5 9
s-81.334 16.833 -107.001 32.5s-44 37.834 -55 66.501s-16.5 65.334 -16.5 110.001zM1157 -0.00390625v134c7.33301 0 12.5 -6.16699 15.5 -18.5s4.5 -28.5 4.5 -48.5c0 -20.667 -1.5 -37 -4.5 -49s-8.16699 -18 -15.5 -18zM896 576.996l0.00195312 57.999l40 11
c-2.66699 8 -4.83398 16.833 -6.50098 26.5s-2.5 21.5 -2.5 35.5c0 36 7.16699 64 21.5 84s34.666 34.5 60.999 43.5s56.833 14.5 91.5 16.5v-69c-16.667 -1.33301 -33 -3.66602 -49 -6.99902s-31.333 -8.33301 -46 -15v-66c0 -10.667 3 -17.5 9 -20.5s16.333 -2.5 31 1.5
l82 22v-60z" />
    <glyph glyph-name="uniFC69" unicode="&#xfe8c;&#xfef2;" horiz-adv-x="1157" arabic-form="final" 
d="M952 0v470h120v-336h85v-134h-205zM65 -64c0 24 1.16699 48.8291 3.5 74.4961s6 50.5 11 74.5s10.833 46.333 17.5 67l116 -19c-8 -30.667 -14.833 -60.167 -20.5 -88.5s-8.5 -55.833 -8.5 -82.5c0 -23.333 0.833008 -43.5 2.5 -60.5s4.5 -33.5 8.5 -49.5h282
c48 0 86 1.33301 114 4s47.833 7.83398 59.5 15.501s17.5 18.834 17.5 33.501v154l-135 15c-45.333 5.33301 -80 15 -104 29s-40.5 34.667 -49.5 62s-13.5 62.666 -13.5 105.999c0 36.667 3 67.834 9 93.501s16.5 46.167 31.5 61.5s36 26.5 63 33.5s61.5 10.5 103.5 10.5
h379v-134h-459v-127l143 -15c40 -4 70.833 -12.833 92.5 -26.5s36.834 -33 45.501 -58s13 -56.833 13 -95.5v-75c0 -42.667 -5.5 -78.167 -16.5 -106.5s-30 -50.833 -57 -67.5s-64.667 -28.667 -113 -36s-109.5 -11 -183.5 -11c-70 0 -127.833 3 -173.5 9
s-81.334 16.833 -107.001 32.5s-44 37.834 -55 66.501s-16.5 65.334 -16.5 110.001zM1157 -0.00390625v134c7.33301 0 12.5 -6.16699 15.5 -18.5s4.5 -28.5 4.5 -48.5c0 -20.667 -1.5 -37 -4.5 -49s-8.16699 -18 -15.5 -18zM896 576.996l0.00195312 57.999l40 11
c-2.66699 8 -4.83398 16.833 -6.50098 26.5s-2.5 21.5 -2.5 35.5c0 36 7.16699 64 21.5 84s34.666 34.5 60.999 43.5s56.833 14.5 91.5 16.5v-69c-16.667 -1.33301 -33 -3.66602 -49 -6.99902s-31.333 -8.33301 -46 -15v-66c0 -10.667 3 -17.5 9 -20.5s16.333 -2.5 31 1.5
l82 22v-60zM351.002 -470.005c-8.66699 0 -18.4971 4 -29.4971 12s-20.5 17.5 -28.5 28.5s-12 20.833 -12 29.5c0 9.33301 4 19.333 12 30s17.5 20 28.5 28s20.833 12 29.5 12c9.33301 0 19.166 -4 29.499 -12s19.666 -17.333 27.999 -28s12.5 -20.667 12.5 -30
c0 -8 -4.16699 -17.667 -12.5 -29s-17.833 -21 -28.5 -29s-20.334 -12 -29.001 -12zM518.005 -470.005c-8.66699 0 -18.4971 4 -29.4971 12s-20.5 17.5 -28.5 28.5s-12 20.833 -12 29.5c0 9.33301 4 19.333 12 30s17.5 20 28.5 28s20.833 12 29.5 12
c9.33301 0 19.166 -4 29.499 -12s19.666 -17.333 27.999 -28s12.5 -20.667 12.5 -30c0 -8 -4.16699 -17.667 -12.5 -29s-17.833 -21 -28.5 -29s-20.334 -12 -29.001 -12z" />
    <glyph glyph-name="uniFC6A" unicode="&#xfe92;&#xfeae;" horiz-adv-x="654" arabic-form="final" 
d="M68 -272l-45 106.002c26 12 46.167 25 60.5 39s24.333 32.167 30 54.5s8.5 51.166 8.5 86.499v456h119v-456c0 -50.667 -5.83301 -93.834 -17.5 -129.501s-30 -66.167 -55 -91.5s-58.5 -47 -100.5 -65zM240 336.002v134h209v-134h-209zM449 0.00195312v470h119v-336h86
v-134h-205zM654 0.00195312v134c6.66699 0 11.667 -6.16699 15 -18.5s5 -28.5 5 -48.5c0 -20.667 -1.66699 -37 -5 -49s-8.33301 -18 -15 -18zM509 -219.998c-8.66699 0 -18.4971 4 -29.4971 12s-20.5 17.5 -28.5 28.5s-12 20.833 -12 29.5c0 9.33301 4 19.333 12 30
s17.5 20 28.5 28s20.833 12 29.5 12c9.33301 0 19.166 -4 29.499 -12s19.666 -17.333 27.999 -28s12.5 -20.667 12.5 -30c0 -8 -4.16699 -17.667 -12.5 -29s-17.833 -21 -28.5 -29s-20.334 -12 -29.001 -12z" />
    <glyph glyph-name="uniFC6B" unicode="&#xfe92;&#xfeb0;" horiz-adv-x="654" arabic-form="final" 
d="M68 -272l-45 106.002c26 12 46.167 25 60.5 39s24.333 32.167 30 54.5s8.5 51.166 8.5 86.499v456h119v-456c0 -50.667 -5.83301 -93.834 -17.5 -129.501s-30 -66.167 -55 -91.5s-58.5 -47 -100.5 -65zM240 336.002v134h209v-134h-209zM449 0.00195312v470h119v-336h86
v-134h-205zM654 0.00195312v134c6.66699 0 11.667 -6.16699 15 -18.5s5 -28.5 5 -48.5c0 -20.667 -1.66699 -37 -5 -49s-8.33301 -18 -15 -18zM509 -219.998c-8.66699 0 -18.4971 4 -29.4971 12s-20.5 17.5 -28.5 28.5s-12 20.833 -12 29.5c0 9.33301 4 19.333 12 30
s17.5 20 28.5 28s20.833 12 29.5 12c9.33301 0 19.166 -4 29.499 -12s19.666 -17.333 27.999 -28s12.5 -20.667 12.5 -30c0 -8 -4.16699 -17.667 -12.5 -29s-17.833 -21 -28.5 -29s-20.334 -12 -29.001 -12zM181.003 587.002c-8.66699 0 -18.4971 4 -29.4971 12
s-20.5 17.5 -28.5 28.5s-12 20.833 -12 29.5c0 9.33301 4 19.333 12 30s17.5 20 28.5 28s20.833 12 29.5 12c9.33301 0 19.166 -4 29.499 -12s19.666 -17.333 27.999 -28s12.5 -20.667 12.5 -30c0 -8 -4.16699 -17.667 -12.5 -29s-17.833 -21 -28.5 -29
s-20.334 -12 -29.001 -12z" />
    <glyph glyph-name="uniFC6D" unicode="&#xfe92;&#xfee6;" horiz-adv-x="1000" arabic-form="final" 
d="M796 0v470h119v-336h85v-134h-204zM587 336v134h209v-134h-209zM317 -240c-51.333 0 -93.501 3.50098 -126.501 10.501s-58.667 19.167 -77 36.5s-31 41.333 -38 72s-10.5 69.667 -10.5 117c0 28 1.16699 56.333 3.5 85s6 56.667 11 84s10.833 53 17.5 77l112 -18
c-8 -36.667 -14.167 -72 -18.5 -106s-6.5 -66.667 -6.5 -98c0 -26.667 0.833008 -49.834 2.5 -69.501s4.5 -38.167 8.5 -55.5h157c40.667 0 70.167 3.5 88.5 10.5s27.5 21.167 27.5 42.5v522h119v-484c0 -44.667 -3.5 -81.667 -10.5 -111s-20 -52.5 -39 -69.5
s-46.167 -28.833 -81.5 -35.5s-81.666 -10 -138.999 -10zM327.999 595.001c-8.66699 0 -18.332 4 -28.999 12s-20.167 17.5 -28.5 28.5s-12.5 20.833 -12.5 29.5c0 9.33301 4 19.333 12 30s17.5 20 28.5 28s20.833 12 29.5 12c9.33301 0 19.333 -4 30 -12s20 -17.333 28 -28
s12 -20.667 12 -30c0 -8 -4.16699 -17.667 -12.5 -29s-17.833 -21 -28.5 -29s-20.334 -12 -29.001 -12zM1000 0.000976562v134c7.33301 0 12.5 -6.16699 15.5 -18.5s4.5 -28.5 4.5 -48.5c0 -20.667 -1.5 -37 -4.5 -49s-8.16699 -18 -15.5 -18zM856.001 -219.999
c-8.66699 0 -18.4971 4 -29.4971 12s-20.5 17.5 -28.5 28.5s-12 20.833 -12 29.5c0 9.33301 4 19.333 12 30s17.5 20 28.5 28s20.833 12 29.5 12c9.33301 0 19.166 -4 29.499 -12s19.666 -17.333 27.999 -28s12.5 -20.667 12.5 -30c0 -8 -4.16699 -17.667 -12.5 -29
s-17.833 -21 -28.5 -29s-20.334 -12 -29.001 -12z" />
    <glyph glyph-name="uniFC6E" unicode="&#xfe92;&#xfef0;" horiz-adv-x="1157" arabic-form="final" 
d="M952 0v470h120v-336h85v-134h-205zM65 -64c0 24 1.16699 48.8291 3.5 74.4961s6 50.5 11 74.5s10.833 46.333 17.5 67l116 -19c-8 -30.667 -14.833 -60.167 -20.5 -88.5s-8.5 -55.833 -8.5 -82.5c0 -23.333 0.833008 -43.5 2.5 -60.5s4.5 -33.5 8.5 -49.5h282
c48 0 86 1.33301 114 4s47.833 7.83398 59.5 15.501s17.5 18.834 17.5 33.501v154l-135 15c-45.333 5.33301 -80 15 -104 29s-40.5 34.667 -49.5 62s-13.5 62.666 -13.5 105.999c0 36.667 3 67.834 9 93.501s16.5 46.167 31.5 61.5s36 26.5 63 33.5s61.5 10.5 103.5 10.5
h379v-134h-459v-127l143 -15c40 -4 70.833 -12.833 92.5 -26.5s36.834 -33 45.501 -58s13 -56.833 13 -95.5v-75c0 -42.667 -5.5 -78.167 -16.5 -106.5s-30 -50.833 -57 -67.5s-64.667 -28.667 -113 -36s-109.5 -11 -183.5 -11c-70 0 -127.833 3 -173.5 9
s-81.334 16.833 -107.001 32.5s-44 37.834 -55 66.501s-16.5 65.334 -16.5 110.001zM1157 -0.00390625v134c7.33301 0 12.5 -6.16699 15.5 -18.5s4.5 -28.5 4.5 -48.5c0 -20.667 -1.5 -37 -4.5 -49s-8.16699 -18 -15.5 -18zM1012 -200.004
c-8.66699 0 -18.4971 4 -29.4971 12s-20.5 17.5 -28.5 28.5s-12 20.833 -12 29.5c0 9.33301 4 19.333 12 30s17.5 20 28.5 28s20.833 12 29.5 12c9.33301 0 19.166 -4 29.499 -12s19.666 -17.333 27.999 -28s12.5 -20.667 12.5 -30c0 -8 -4.16699 -17.667 -12.5 -29
s-17.833 -21 -28.5 -29s-20.334 -12 -29.001 -12z" />
    <glyph glyph-name="uniFC6F" unicode="&#xfe92;&#xfef2;" horiz-adv-x="1157" arabic-form="final" 
d="M952 0v470h120v-336h85v-134h-205zM65 -64c0 24 1.16699 48.8291 3.5 74.4961s6 50.5 11 74.5s10.833 46.333 17.5 67l116 -19c-8 -30.667 -14.833 -60.167 -20.5 -88.5s-8.5 -55.833 -8.5 -82.5c0 -23.333 0.833008 -43.5 2.5 -60.5s4.5 -33.5 8.5 -49.5h282
c48 0 86 1.33301 114 4s47.833 7.83398 59.5 15.501s17.5 18.834 17.5 33.501v154l-135 15c-45.333 5.33301 -80 15 -104 29s-40.5 34.667 -49.5 62s-13.5 62.666 -13.5 105.999c0 36.667 3 67.834 9 93.501s16.5 46.167 31.5 61.5s36 26.5 63 33.5s61.5 10.5 103.5 10.5
h379v-134h-459v-127l143 -15c40 -4 70.833 -12.833 92.5 -26.5s36.834 -33 45.501 -58s13 -56.833 13 -95.5v-75c0 -42.667 -5.5 -78.167 -16.5 -106.5s-30 -50.833 -57 -67.5s-64.667 -28.667 -113 -36s-109.5 -11 -183.5 -11c-70 0 -127.833 3 -173.5 9
s-81.334 16.833 -107.001 32.5s-44 37.834 -55 66.501s-16.5 65.334 -16.5 110.001zM1157 -0.00390625v134c7.33301 0 12.5 -6.16699 15.5 -18.5s4.5 -28.5 4.5 -48.5c0 -20.667 -1.5 -37 -4.5 -49s-8.16699 -18 -15.5 -18zM1012 -200.004
c-8.66699 0 -18.4971 4 -29.4971 12s-20.5 17.5 -28.5 28.5s-12 20.833 -12 29.5c0 9.33301 4 19.333 12 30s17.5 20 28.5 28s20.833 12 29.5 12c9.33301 0 19.166 -4 29.499 -12s19.666 -17.333 27.999 -28s12.5 -20.667 12.5 -30c0 -8 -4.16699 -17.667 -12.5 -29
s-17.833 -21 -28.5 -29s-20.334 -12 -29.001 -12zM351.003 -470.004c-8.66699 0 -18.4971 4 -29.4971 12s-20.5 17.5 -28.5 28.5s-12 20.833 -12 29.5c0 9.33301 4 19.333 12 30s17.5 20 28.5 28s20.833 12 29.5 12c9.33301 0 19.166 -4 29.499 -12
s19.666 -17.333 27.999 -28s12.5 -20.667 12.5 -30c0 -8 -4.16699 -17.667 -12.5 -29s-17.833 -21 -28.5 -29s-20.334 -12 -29.001 -12zM518.006 -470.004c-8.66699 0 -18.4971 4 -29.4971 12s-20.5 17.5 -28.5 28.5s-12 20.833 -12 29.5c0 9.33301 4 19.333 12 30
s17.5 20 28.5 28s20.833 12 29.5 12c9.33301 0 19.166 -4 29.499 -12s19.666 -17.333 27.999 -28s12.5 -20.667 12.5 -30c0 -8 -4.16699 -17.667 -12.5 -29s-17.833 -21 -28.5 -29s-20.334 -12 -29.001 -12z" />
    <glyph glyph-name="uniFC70" unicode="&#xfe98;&#xfeae;" horiz-adv-x="654" arabic-form="final" 
d="M68 -272l-45 106.002c26 12 46.167 25 60.5 39s24.333 32.167 30 54.5s8.5 51.166 8.5 86.499v456h119v-456c0 -50.667 -5.83301 -93.834 -17.5 -129.501s-30 -66.167 -55 -91.5s-58.5 -47 -100.5 -65zM240 336.002v134h209v-134h-209zM449 0.00195312v470h119v-336h86
v-134h-205zM654 0.00195312v134c6.66699 0 11.667 -6.16699 15 -18.5s5 -28.5 5 -48.5c0 -20.667 -1.66699 -37 -5 -49s-8.33301 -18 -15 -18zM426 587.002c-8.66699 0 -18.4971 4 -29.4971 12s-20.5 17.5 -28.5 28.5s-12 20.833 -12 29.5c0 9.33301 4 19.333 12 30
s17.5 20 28.5 28s20.833 12 29.5 12c9.33301 0 19.166 -4 29.499 -12s19.666 -17.333 27.999 -28s12.5 -20.667 12.5 -30c0 -8 -4.16699 -17.667 -12.5 -29s-17.833 -21 -28.5 -29s-20.334 -12 -29.001 -12zM593.003 587.002c-8.66699 0 -18.4971 4 -29.4971 12
s-20.5 17.5 -28.5 28.5s-12 20.833 -12 29.5c0 9.33301 4 19.333 12 30s17.5 20 28.5 28s20.833 12 29.5 12c9.33301 0 19.166 -4 29.499 -12s19.666 -17.333 27.999 -28s12.5 -20.667 12.5 -30c0 -8 -4.16699 -17.667 -12.5 -29s-17.833 -21 -28.5 -29
s-20.334 -12 -29.001 -12z" />
    <glyph glyph-name="uniFC71" unicode="&#xfe98;&#xfeb0;" horiz-adv-x="654" arabic-form="final" 
d="M68 -272l-45 106.002c26 12 46.167 25 60.5 39s24.333 32.167 30 54.5s8.5 51.166 8.5 86.499v456h119v-456c0 -50.667 -5.83301 -93.834 -17.5 -129.501s-30 -66.167 -55 -91.5s-58.5 -47 -100.5 -65zM240 336.002v134h209v-134h-209zM449 0.00195312v470h119v-336h86
v-134h-205zM654 0.00195312v134c6.66699 0 11.667 -6.16699 15 -18.5s5 -28.5 5 -48.5c0 -20.667 -1.66699 -37 -5 -49s-8.33301 -18 -15 -18zM426 587.002c-8.66699 0 -18.4971 4 -29.4971 12s-20.5 17.5 -28.5 28.5s-12 20.833 -12 29.5c0 9.33301 4 19.333 12 30
s17.5 20 28.5 28s20.833 12 29.5 12c9.33301 0 19.166 -4 29.499 -12s19.666 -17.333 27.999 -28s12.5 -20.667 12.5 -30c0 -8 -4.16699 -17.667 -12.5 -29s-17.833 -21 -28.5 -29s-20.334 -12 -29.001 -12zM593.003 587.002c-8.66699 0 -18.4971 4 -29.4971 12
s-20.5 17.5 -28.5 28.5s-12 20.833 -12 29.5c0 9.33301 4 19.333 12 30s17.5 20 28.5 28s20.833 12 29.5 12c9.33301 0 19.166 -4 29.499 -12s19.666 -17.333 27.999 -28s12.5 -20.667 12.5 -30c0 -8 -4.16699 -17.667 -12.5 -29s-17.833 -21 -28.5 -29
s-20.334 -12 -29.001 -12zM181.006 587.002c-8.66699 0 -18.4971 4 -29.4971 12s-20.5 17.5 -28.5 28.5s-12 20.833 -12 29.5c0 9.33301 4 19.333 12 30s17.5 20 28.5 28s20.833 12 29.5 12c9.33301 0 19.166 -4 29.499 -12s19.666 -17.333 27.999 -28
s12.5 -20.667 12.5 -30c0 -8 -4.16699 -17.667 -12.5 -29s-17.833 -21 -28.5 -29s-20.334 -12 -29.001 -12z" />
    <glyph glyph-name="uniFC73" unicode="&#xfe98;&#xfee6;" horiz-adv-x="1000" arabic-form="final" 
d="M796 0v470h119v-336h85v-134h-204zM587 336v134h209v-134h-209zM317 -240c-51.333 0 -93.501 3.50098 -126.501 10.501s-58.667 19.167 -77 36.5s-31 41.333 -38 72s-10.5 69.667 -10.5 117c0 28 1.16699 56.333 3.5 85s6 56.667 11 84s10.833 53 17.5 77l112 -18
c-8 -36.667 -14.167 -72 -18.5 -106s-6.5 -66.667 -6.5 -98c0 -26.667 0.833008 -49.834 2.5 -69.501s4.5 -38.167 8.5 -55.5h157c40.667 0 70.167 3.5 88.5 10.5s27.5 21.167 27.5 42.5v522h119v-484c0 -44.667 -3.5 -81.667 -10.5 -111s-20 -52.5 -39 -69.5
s-46.167 -28.833 -81.5 -35.5s-81.666 -10 -138.999 -10zM327.999 595.001c-8.66699 0 -18.332 4 -28.999 12s-20.167 17.5 -28.5 28.5s-12.5 20.833 -12.5 29.5c0 9.33301 4 19.333 12 30s17.5 20 28.5 28s20.833 12 29.5 12c9.33301 0 19.333 -4 30 -12s20 -17.333 28 -28
s12 -20.667 12 -30c0 -8 -4.16699 -17.667 -12.5 -29s-17.833 -21 -28.5 -29s-20.334 -12 -29.001 -12zM1000 0.000976562v134c7.33301 0 12.5 -6.16699 15.5 -18.5s4.5 -28.5 4.5 -48.5c0 -20.667 -1.5 -37 -4.5 -49s-8.16699 -18 -15.5 -18zM773.001 587.001
c-8.66699 0 -18.4971 4 -29.4971 12s-20.5 17.5 -28.5 28.5s-12 20.833 -12 29.5c0 9.33301 4 19.333 12 30s17.5 20 28.5 28s20.833 12 29.5 12c9.33301 0 19.166 -4 29.499 -12s19.666 -17.333 27.999 -28s12.5 -20.667 12.5 -30c0 -8 -4.16699 -17.667 -12.5 -29
s-17.833 -21 -28.5 -29s-20.334 -12 -29.001 -12zM940.004 587.001c-8.66699 0 -18.4971 4 -29.4971 12s-20.5 17.5 -28.5 28.5s-12 20.833 -12 29.5c0 9.33301 4 19.333 12 30s17.5 20 28.5 28s20.833 12 29.5 12c9.33301 0 19.166 -4 29.499 -12
s19.666 -17.333 27.999 -28s12.5 -20.667 12.5 -30c0 -8 -4.16699 -17.667 -12.5 -29s-17.833 -21 -28.5 -29s-20.334 -12 -29.001 -12z" />
    <glyph glyph-name="uniFC74" unicode="&#xfe98;&#xfef0;" horiz-adv-x="1157" arabic-form="final" 
d="M952 0v470h120v-336h85v-134h-205zM65 -64c0 24 1.16699 48.8291 3.5 74.4961s6 50.5 11 74.5s10.833 46.333 17.5 67l116 -19c-8 -30.667 -14.833 -60.167 -20.5 -88.5s-8.5 -55.833 -8.5 -82.5c0 -23.333 0.833008 -43.5 2.5 -60.5s4.5 -33.5 8.5 -49.5h282
c48 0 86 1.33301 114 4s47.833 7.83398 59.5 15.501s17.5 18.834 17.5 33.501v154l-135 15c-45.333 5.33301 -80 15 -104 29s-40.5 34.667 -49.5 62s-13.5 62.666 -13.5 105.999c0 36.667 3 67.834 9 93.501s16.5 46.167 31.5 61.5s36 26.5 63 33.5s61.5 10.5 103.5 10.5
h379v-134h-459v-127l143 -15c40 -4 70.833 -12.833 92.5 -26.5s36.834 -33 45.501 -58s13 -56.833 13 -95.5v-75c0 -42.667 -5.5 -78.167 -16.5 -106.5s-30 -50.833 -57 -67.5s-64.667 -28.667 -113 -36s-109.5 -11 -183.5 -11c-70 0 -127.833 3 -173.5 9
s-81.334 16.833 -107.001 32.5s-44 37.834 -55 66.501s-16.5 65.334 -16.5 110.001zM1157 -0.00390625v134c7.33301 0 12.5 -6.16699 15.5 -18.5s4.5 -28.5 4.5 -48.5c0 -20.667 -1.5 -37 -4.5 -49s-8.16699 -18 -15.5 -18zM929 586.996c-8.66699 0 -18.4971 4 -29.4971 12
s-20.5 17.5 -28.5 28.5s-12 20.833 -12 29.5c0 9.33301 4 19.333 12 30s17.5 20 28.5 28s20.833 12 29.5 12c9.33301 0 19.166 -4 29.499 -12s19.666 -17.333 27.999 -28s12.5 -20.667 12.5 -30c0 -8 -4.16699 -17.667 -12.5 -29s-17.833 -21 -28.5 -29
s-20.334 -12 -29.001 -12zM1096 586.996c-8.66699 0 -18.4971 4 -29.4971 12s-20.5 17.5 -28.5 28.5s-12 20.833 -12 29.5c0 9.33301 4 19.333 12 30s17.5 20 28.5 28s20.833 12 29.5 12c9.33301 0 19.166 -4 29.499 -12s19.666 -17.333 27.999 -28s12.5 -20.667 12.5 -30
c0 -8 -4.16699 -17.667 -12.5 -29s-17.833 -21 -28.5 -29s-20.334 -12 -29.001 -12z" />
    <glyph glyph-name="uniFC75" unicode="&#xfe98;&#xfef2;" horiz-adv-x="1157" arabic-form="final" 
d="M952 0v470h120v-336h85v-134h-205zM65 -64c0 24 1.16699 48.8291 3.5 74.4961s6 50.5 11 74.5s10.833 46.333 17.5 67l116 -19c-8 -30.667 -14.833 -60.167 -20.5 -88.5s-8.5 -55.833 -8.5 -82.5c0 -23.333 0.833008 -43.5 2.5 -60.5s4.5 -33.5 8.5 -49.5h282
c48 0 86 1.33301 114 4s47.833 7.83398 59.5 15.501s17.5 18.834 17.5 33.501v154l-135 15c-45.333 5.33301 -80 15 -104 29s-40.5 34.667 -49.5 62s-13.5 62.666 -13.5 105.999c0 36.667 3 67.834 9 93.501s16.5 46.167 31.5 61.5s36 26.5 63 33.5s61.5 10.5 103.5 10.5
h379v-134h-459v-127l143 -15c40 -4 70.833 -12.833 92.5 -26.5s36.834 -33 45.501 -58s13 -56.833 13 -95.5v-75c0 -42.667 -5.5 -78.167 -16.5 -106.5s-30 -50.833 -57 -67.5s-64.667 -28.667 -113 -36s-109.5 -11 -183.5 -11c-70 0 -127.833 3 -173.5 9
s-81.334 16.833 -107.001 32.5s-44 37.834 -55 66.501s-16.5 65.334 -16.5 110.001zM1157 -0.00390625v134c7.33301 0 12.5 -6.16699 15.5 -18.5s4.5 -28.5 4.5 -48.5c0 -20.667 -1.5 -37 -4.5 -49s-8.16699 -18 -15.5 -18zM929 586.996c-8.66699 0 -18.4971 4 -29.4971 12
s-20.5 17.5 -28.5 28.5s-12 20.833 -12 29.5c0 9.33301 4 19.333 12 30s17.5 20 28.5 28s20.833 12 29.5 12c9.33301 0 19.166 -4 29.499 -12s19.666 -17.333 27.999 -28s12.5 -20.667 12.5 -30c0 -8 -4.16699 -17.667 -12.5 -29s-17.833 -21 -28.5 -29
s-20.334 -12 -29.001 -12zM1096 586.996c-8.66699 0 -18.4971 4 -29.4971 12s-20.5 17.5 -28.5 28.5s-12 20.833 -12 29.5c0 9.33301 4 19.333 12 30s17.5 20 28.5 28s20.833 12 29.5 12c9.33301 0 19.166 -4 29.499 -12s19.666 -17.333 27.999 -28s12.5 -20.667 12.5 -30
c0 -8 -4.16699 -17.667 -12.5 -29s-17.833 -21 -28.5 -29s-20.334 -12 -29.001 -12zM351.006 -470.004c-8.66699 0 -18.4971 4 -29.4971 12s-20.5 17.5 -28.5 28.5s-12 20.833 -12 29.5c0 9.33301 4 19.333 12 30s17.5 20 28.5 28s20.833 12 29.5 12
c9.33301 0 19.166 -4 29.499 -12s19.666 -17.333 27.999 -28s12.5 -20.667 12.5 -30c0 -8 -4.16699 -17.667 -12.5 -29s-17.833 -21 -28.5 -29s-20.334 -12 -29.001 -12zM518.009 -470.004c-8.66699 0 -18.4971 4 -29.4971 12s-20.5 17.5 -28.5 28.5s-12 20.833 -12 29.5
c0 9.33301 4 19.333 12 30s17.5 20 28.5 28s20.833 12 29.5 12c9.33301 0 19.166 -4 29.499 -12s19.666 -17.333 27.999 -28s12.5 -20.667 12.5 -30c0 -8 -4.16699 -17.667 -12.5 -29s-17.833 -21 -28.5 -29s-20.334 -12 -29.001 -12z" />
    <glyph glyph-name="uniFC76" unicode="&#xfe9c;&#xfeae;" horiz-adv-x="654" arabic-form="final" 
d="M68 -272l-45 106.002c26 12 46.167 25 60.5 39s24.333 32.167 30 54.5s8.5 51.166 8.5 86.499v456h119v-456c0 -50.667 -5.83301 -93.834 -17.5 -129.501s-30 -66.167 -55 -91.5s-58.5 -47 -100.5 -65zM240 336.002v134h209v-134h-209zM449 0.00195312v470h119v-336h86
v-134h-205zM654 0.00195312v134c6.66699 0 11.667 -6.16699 15 -18.5s5 -28.5 5 -48.5c0 -20.667 -1.66699 -37 -5 -49s-8.33301 -18 -15 -18zM426 587.002c-8.66699 0 -18.4971 4 -29.4971 12s-20.5 17.5 -28.5 28.5s-12 20.833 -12 29.5c0 9.33301 4 19.333 12 30
s17.5 20 28.5 28s20.833 12 29.5 12c9.33301 0 19.166 -4 29.499 -12s19.666 -17.333 27.999 -28s12.5 -20.667 12.5 -30c0 -8 -4.16699 -17.667 -12.5 -29s-17.833 -21 -28.5 -29s-20.334 -12 -29.001 -12zM593.003 587.002c-8.66699 0 -18.4971 4 -29.4971 12
s-20.5 17.5 -28.5 28.5s-12 20.833 -12 29.5c0 9.33301 4 19.333 12 30s17.5 20 28.5 28s20.833 12 29.5 12c9.33301 0 19.166 -4 29.499 -12s19.666 -17.333 27.999 -28s12.5 -20.667 12.5 -30c0 -8 -4.16699 -17.667 -12.5 -29s-17.833 -21 -28.5 -29
s-20.334 -12 -29.001 -12zM509.006 764.002c-8.66699 0 -18.4971 4 -29.4971 12s-20.5 17.5 -28.5 28.5s-12 20.833 -12 29.5c0 9.33301 4 19.333 12 30s17.5 20 28.5 28s20.833 12 29.5 12c9.33301 0 19.166 -4 29.499 -12s19.666 -17.333 27.999 -28
s12.5 -20.667 12.5 -30c0 -8 -4.16699 -17.667 -12.5 -29s-17.833 -21 -28.5 -29s-20.334 -12 -29.001 -12z" />
    <glyph glyph-name="uniFC77" unicode="&#xfe9c;&#xfeb0;" horiz-adv-x="654" arabic-form="final" 
d="M68 -272l-45 106.002c26 12 46.167 25 60.5 39s24.333 32.167 30 54.5s8.5 51.166 8.5 86.499v456h119v-456c0 -50.667 -5.83301 -93.834 -17.5 -129.501s-30 -66.167 -55 -91.5s-58.5 -47 -100.5 -65zM240 336.002v134h209v-134h-209zM449 0.00195312v470h119v-336h86
v-134h-205zM654 0.00195312v134c6.66699 0 11.667 -6.16699 15 -18.5s5 -28.5 5 -48.5c0 -20.667 -1.66699 -37 -5 -49s-8.33301 -18 -15 -18zM426 587.002c-8.66699 0 -18.4971 4 -29.4971 12s-20.5 17.5 -28.5 28.5s-12 20.833 -12 29.5c0 9.33301 4 19.333 12 30
s17.5 20 28.5 28s20.833 12 29.5 12c9.33301 0 19.166 -4 29.499 -12s19.666 -17.333 27.999 -28s12.5 -20.667 12.5 -30c0 -8 -4.16699 -17.667 -12.5 -29s-17.833 -21 -28.5 -29s-20.334 -12 -29.001 -12zM593.003 587.002c-8.66699 0 -18.4971 4 -29.4971 12
s-20.5 17.5 -28.5 28.5s-12 20.833 -12 29.5c0 9.33301 4 19.333 12 30s17.5 20 28.5 28s20.833 12 29.5 12c9.33301 0 19.166 -4 29.499 -12s19.666 -17.333 27.999 -28s12.5 -20.667 12.5 -30c0 -8 -4.16699 -17.667 -12.5 -29s-17.833 -21 -28.5 -29
s-20.334 -12 -29.001 -12zM509.006 764.002c-8.66699 0 -18.4971 4 -29.4971 12s-20.5 17.5 -28.5 28.5s-12 20.833 -12 29.5c0 9.33301 4 19.333 12 30s17.5 20 28.5 28s20.833 12 29.5 12c9.33301 0 19.166 -4 29.499 -12s19.666 -17.333 27.999 -28
s12.5 -20.667 12.5 -30c0 -8 -4.16699 -17.667 -12.5 -29s-17.833 -21 -28.5 -29s-20.334 -12 -29.001 -12zM180.009 587.002c-8.66699 0 -18.4971 4 -29.4971 12s-20.5 17.5 -28.5 28.5s-12 20.833 -12 29.5c0 9.33301 4 19.333 12 30s17.5 20 28.5 28s20.833 12 29.5 12
c9.33301 0 19.166 -4 29.499 -12s19.666 -17.333 27.999 -28s12.5 -20.667 12.5 -30c0 -8 -4.16699 -17.667 -12.5 -29s-17.833 -21 -28.5 -29s-20.334 -12 -29.001 -12z" />
    <glyph glyph-name="uniFC79" unicode="&#xfe9c;&#xfee6;" horiz-adv-x="1000" arabic-form="final" 
d="M796 0v470h119v-336h85v-134h-204zM587 336v134h209v-134h-209zM317 -240c-51.333 0 -93.501 3.50098 -126.501 10.501s-58.667 19.167 -77 36.5s-31 41.333 -38 72s-10.5 69.667 -10.5 117c0 28 1.16699 56.333 3.5 85s6 56.667 11 84s10.833 53 17.5 77l112 -18
c-8 -36.667 -14.167 -72 -18.5 -106s-6.5 -66.667 -6.5 -98c0 -26.667 0.833008 -49.834 2.5 -69.501s4.5 -38.167 8.5 -55.5h157c40.667 0 70.167 3.5 88.5 10.5s27.5 21.167 27.5 42.5v522h119v-484c0 -44.667 -3.5 -81.667 -10.5 -111s-20 -52.5 -39 -69.5
s-46.167 -28.833 -81.5 -35.5s-81.666 -10 -138.999 -10zM327.999 595.001c-8.66699 0 -18.332 4 -28.999 12s-20.167 17.5 -28.5 28.5s-12.5 20.833 -12.5 29.5c0 9.33301 4 19.333 12 30s17.5 20 28.5 28s20.833 12 29.5 12c9.33301 0 19.333 -4 30 -12s20 -17.333 28 -28
s12 -20.667 12 -30c0 -8 -4.16699 -17.667 -12.5 -29s-17.833 -21 -28.5 -29s-20.334 -12 -29.001 -12zM1000 0.000976562v134c7.33301 0 12.5 -6.16699 15.5 -18.5s4.5 -28.5 4.5 -48.5c0 -20.667 -1.5 -37 -4.5 -49s-8.16699 -18 -15.5 -18zM773.001 587.001
c-8.66699 0 -18.4971 4 -29.4971 12s-20.5 17.5 -28.5 28.5s-12 20.833 -12 29.5c0 9.33301 4 19.333 12 30s17.5 20 28.5 28s20.833 12 29.5 12c9.33301 0 19.166 -4 29.499 -12s19.666 -17.333 27.999 -28s12.5 -20.667 12.5 -30c0 -8 -4.16699 -17.667 -12.5 -29
s-17.833 -21 -28.5 -29s-20.334 -12 -29.001 -12zM940.004 587.001c-8.66699 0 -18.4971 4 -29.4971 12s-20.5 17.5 -28.5 28.5s-12 20.833 -12 29.5c0 9.33301 4 19.333 12 30s17.5 20 28.5 28s20.833 12 29.5 12c9.33301 0 19.166 -4 29.499 -12
s19.666 -17.333 27.999 -28s12.5 -20.667 12.5 -30c0 -8 -4.16699 -17.667 -12.5 -29s-17.833 -21 -28.5 -29s-20.334 -12 -29.001 -12zM856.007 764.001c-8.66699 0 -18.4971 4 -29.4971 12s-20.5 17.5 -28.5 28.5s-12 20.833 -12 29.5c0 9.33301 4 19.333 12 30
s17.5 20 28.5 28s20.833 12 29.5 12c9.33301 0 19.166 -4 29.499 -12s19.666 -17.333 27.999 -28s12.5 -20.667 12.5 -30c0 -8 -4.16699 -17.667 -12.5 -29s-17.833 -21 -28.5 -29s-20.334 -12 -29.001 -12z" />
    <glyph glyph-name="uniFC7A" unicode="&#xfe9c;&#xfef0;" horiz-adv-x="1157" arabic-form="final" 
d="M952 0v470h120v-336h85v-134h-205zM65 -64c0 24 1.16699 48.8291 3.5 74.4961s6 50.5 11 74.5s10.833 46.333 17.5 67l116 -19c-8 -30.667 -14.833 -60.167 -20.5 -88.5s-8.5 -55.833 -8.5 -82.5c0 -23.333 0.833008 -43.5 2.5 -60.5s4.5 -33.5 8.5 -49.5h282
c48 0 86 1.33301 114 4s47.833 7.83398 59.5 15.501s17.5 18.834 17.5 33.501v154l-135 15c-45.333 5.33301 -80 15 -104 29s-40.5 34.667 -49.5 62s-13.5 62.666 -13.5 105.999c0 36.667 3 67.834 9 93.501s16.5 46.167 31.5 61.5s36 26.5 63 33.5s61.5 10.5 103.5 10.5
h379v-134h-459v-127l143 -15c40 -4 70.833 -12.833 92.5 -26.5s36.834 -33 45.501 -58s13 -56.833 13 -95.5v-75c0 -42.667 -5.5 -78.167 -16.5 -106.5s-30 -50.833 -57 -67.5s-64.667 -28.667 -113 -36s-109.5 -11 -183.5 -11c-70 0 -127.833 3 -173.5 9
s-81.334 16.833 -107.001 32.5s-44 37.834 -55 66.501s-16.5 65.334 -16.5 110.001zM1157 -0.00390625v134c7.33301 0 12.5 -6.16699 15.5 -18.5s4.5 -28.5 4.5 -48.5c0 -20.667 -1.5 -37 -4.5 -49s-8.16699 -18 -15.5 -18zM929 586.996c-8.66699 0 -18.4971 4 -29.4971 12
s-20.5 17.5 -28.5 28.5s-12 20.833 -12 29.5c0 9.33301 4 19.333 12 30s17.5 20 28.5 28s20.833 12 29.5 12c9.33301 0 19.166 -4 29.499 -12s19.666 -17.333 27.999 -28s12.5 -20.667 12.5 -30c0 -8 -4.16699 -17.667 -12.5 -29s-17.833 -21 -28.5 -29
s-20.334 -12 -29.001 -12zM1096 586.996c-8.66699 0 -18.4971 4 -29.4971 12s-20.5 17.5 -28.5 28.5s-12 20.833 -12 29.5c0 9.33301 4 19.333 12 30s17.5 20 28.5 28s20.833 12 29.5 12c9.33301 0 19.166 -4 29.499 -12s19.666 -17.333 27.999 -28s12.5 -20.667 12.5 -30
c0 -8 -4.16699 -17.667 -12.5 -29s-17.833 -21 -28.5 -29s-20.334 -12 -29.001 -12zM1012.01 763.996c-8.66699 0 -18.4971 4 -29.4971 12s-20.5 17.5 -28.5 28.5s-12 20.833 -12 29.5c0 9.33301 4 19.333 12 30s17.5 20 28.5 28s20.833 12 29.5 12
c9.33301 0 19.166 -4 29.499 -12s19.666 -17.333 27.999 -28s12.5 -20.667 12.5 -30c0 -8 -4.16699 -17.667 -12.5 -29s-17.833 -21 -28.5 -29s-20.334 -12 -29.001 -12z" />
    <glyph glyph-name="uniFC7B" unicode="&#xfe9c;&#xfef2;" horiz-adv-x="1157" arabic-form="final" 
d="M952 0v470h120v-336h85v-134h-205zM65 -64c0 24 1.16699 48.8291 3.5 74.4961s6 50.5 11 74.5s10.833 46.333 17.5 67l116 -19c-8 -30.667 -14.833 -60.167 -20.5 -88.5s-8.5 -55.833 -8.5 -82.5c0 -23.333 0.833008 -43.5 2.5 -60.5s4.5 -33.5 8.5 -49.5h282
c48 0 86 1.33301 114 4s47.833 7.83398 59.5 15.501s17.5 18.834 17.5 33.501v154l-135 15c-45.333 5.33301 -80 15 -104 29s-40.5 34.667 -49.5 62s-13.5 62.666 -13.5 105.999c0 36.667 3 67.834 9 93.501s16.5 46.167 31.5 61.5s36 26.5 63 33.5s61.5 10.5 103.5 10.5
h379v-134h-459v-127l143 -15c40 -4 70.833 -12.833 92.5 -26.5s36.834 -33 45.501 -58s13 -56.833 13 -95.5v-75c0 -42.667 -5.5 -78.167 -16.5 -106.5s-30 -50.833 -57 -67.5s-64.667 -28.667 -113 -36s-109.5 -11 -183.5 -11c-70 0 -127.833 3 -173.5 9
s-81.334 16.833 -107.001 32.5s-44 37.834 -55 66.501s-16.5 65.334 -16.5 110.001zM1157 -0.00390625v134c7.33301 0 12.5 -6.16699 15.5 -18.5s4.5 -28.5 4.5 -48.5c0 -20.667 -1.5 -37 -4.5 -49s-8.16699 -18 -15.5 -18zM929 586.996c-8.66699 0 -18.4971 4 -29.4971 12
s-20.5 17.5 -28.5 28.5s-12 20.833 -12 29.5c0 9.33301 4 19.333 12 30s17.5 20 28.5 28s20.833 12 29.5 12c9.33301 0 19.166 -4 29.499 -12s19.666 -17.333 27.999 -28s12.5 -20.667 12.5 -30c0 -8 -4.16699 -17.667 -12.5 -29s-17.833 -21 -28.5 -29
s-20.334 -12 -29.001 -12zM1096 586.996c-8.66699 0 -18.4971 4 -29.4971 12s-20.5 17.5 -28.5 28.5s-12 20.833 -12 29.5c0 9.33301 4 19.333 12 30s17.5 20 28.5 28s20.833 12 29.5 12c9.33301 0 19.166 -4 29.499 -12s19.666 -17.333 27.999 -28s12.5 -20.667 12.5 -30
c0 -8 -4.16699 -17.667 -12.5 -29s-17.833 -21 -28.5 -29s-20.334 -12 -29.001 -12zM1012.01 763.996c-8.66699 0 -18.4971 4 -29.4971 12s-20.5 17.5 -28.5 28.5s-12 20.833 -12 29.5c0 9.33301 4 19.333 12 30s17.5 20 28.5 28s20.833 12 29.5 12
c9.33301 0 19.166 -4 29.499 -12s19.666 -17.333 27.999 -28s12.5 -20.667 12.5 -30c0 -8 -4.16699 -17.667 -12.5 -29s-17.833 -21 -28.5 -29s-20.334 -12 -29.001 -12zM351.009 -470.004c-8.66699 0 -18.4971 4 -29.4971 12s-20.5 17.5 -28.5 28.5s-12 20.833 -12 29.5
c0 9.33301 4 19.333 12 30s17.5 20 28.5 28s20.833 12 29.5 12c9.33301 0 19.166 -4 29.499 -12s19.666 -17.333 27.999 -28s12.5 -20.667 12.5 -30c0 -8 -4.16699 -17.667 -12.5 -29s-17.833 -21 -28.5 -29s-20.334 -12 -29.001 -12zM518.012 -470.004
c-8.66699 0 -18.4971 4 -29.4971 12s-20.5 17.5 -28.5 28.5s-12 20.833 -12 29.5c0 9.33301 4 19.333 12 30s17.5 20 28.5 28s20.833 12 29.5 12c9.33301 0 19.166 -4 29.499 -12s19.666 -17.333 27.999 -28s12.5 -20.667 12.5 -30c0 -8 -4.16699 -17.667 -12.5 -29
s-17.833 -21 -28.5 -29s-20.334 -12 -29.001 -12z" />
    <glyph glyph-name="uniFC8A" unicode="&#xfee8;&#xfeae;" horiz-adv-x="654" arabic-form="final" 
d="M68 -272l-45 106.002c26 12 46.167 25 60.5 39s24.333 32.167 30 54.5s8.5 51.166 8.5 86.499v456h119v-456c0 -50.667 -5.83301 -93.834 -17.5 -129.501s-30 -66.167 -55 -91.5s-58.5 -47 -100.5 -65zM240 336.002v134h209v-134h-209zM449 0.00195312v470h119v-336h86
v-134h-205zM654 0.00195312v134c6.66699 0 11.667 -6.16699 15 -18.5s5 -28.5 5 -48.5c0 -20.667 -1.66699 -37 -5 -49s-8.33301 -18 -15 -18zM509 587.002c-8.66699 0 -18.4971 4 -29.4971 12s-20.5 17.5 -28.5 28.5s-12 20.833 -12 29.5c0 9.33301 4 19.333 12 30
s17.5 20 28.5 28s20.833 12 29.5 12c9.33301 0 19.166 -4 29.499 -12s19.666 -17.333 27.999 -28s12.5 -20.667 12.5 -30c0 -8 -4.16699 -17.667 -12.5 -29s-17.833 -21 -28.5 -29s-20.334 -12 -29.001 -12z" />
    <glyph glyph-name="uniFC8B" unicode="&#xfee8;&#xfeb0;" horiz-adv-x="654" arabic-form="final" 
d="M68 -272l-45 106.002c26 12 46.167 25 60.5 39s24.333 32.167 30 54.5s8.5 51.166 8.5 86.499v456h119v-456c0 -50.667 -5.83301 -93.834 -17.5 -129.501s-30 -66.167 -55 -91.5s-58.5 -47 -100.5 -65zM240 336.002v134h209v-134h-209zM449 0.00195312v470h119v-336h86
v-134h-205zM654 0.00195312v134c6.66699 0 11.667 -6.16699 15 -18.5s5 -28.5 5 -48.5c0 -20.667 -1.66699 -37 -5 -49s-8.33301 -18 -15 -18zM509 587.002c-8.66699 0 -18.4971 4 -29.4971 12s-20.5 17.5 -28.5 28.5s-12 20.833 -12 29.5c0 9.33301 4 19.333 12 30
s17.5 20 28.5 28s20.833 12 29.5 12c9.33301 0 19.166 -4 29.499 -12s19.666 -17.333 27.999 -28s12.5 -20.667 12.5 -30c0 -8 -4.16699 -17.667 -12.5 -29s-17.833 -21 -28.5 -29s-20.334 -12 -29.001 -12zM181.003 587.002c-8.66699 0 -18.4971 4 -29.4971 12
s-20.5 17.5 -28.5 28.5s-12 20.833 -12 29.5c0 9.33301 4 19.333 12 30s17.5 20 28.5 28s20.833 12 29.5 12c9.33301 0 19.166 -4 29.499 -12s19.666 -17.333 27.999 -28s12.5 -20.667 12.5 -30c0 -8 -4.16699 -17.667 -12.5 -29s-17.833 -21 -28.5 -29
s-20.334 -12 -29.001 -12z" />
    <glyph glyph-name="uniFC8D" unicode="&#xfee8;&#xfee6;" horiz-adv-x="1000" arabic-form="final" 
d="M796 0v470h119v-336h85v-134h-204zM587 336v134h209v-134h-209zM317 -240c-51.333 0 -93.501 3.50098 -126.501 10.501s-58.667 19.167 -77 36.5s-31 41.333 -38 72s-10.5 69.667 -10.5 117c0 28 1.16699 56.333 3.5 85s6 56.667 11 84s10.833 53 17.5 77l112 -18
c-8 -36.667 -14.167 -72 -18.5 -106s-6.5 -66.667 -6.5 -98c0 -26.667 0.833008 -49.834 2.5 -69.501s4.5 -38.167 8.5 -55.5h157c40.667 0 70.167 3.5 88.5 10.5s27.5 21.167 27.5 42.5v522h119v-484c0 -44.667 -3.5 -81.667 -10.5 -111s-20 -52.5 -39 -69.5
s-46.167 -28.833 -81.5 -35.5s-81.666 -10 -138.999 -10zM327.999 595.001c-8.66699 0 -18.332 4 -28.999 12s-20.167 17.5 -28.5 28.5s-12.5 20.833 -12.5 29.5c0 9.33301 4 19.333 12 30s17.5 20 28.5 28s20.833 12 29.5 12c9.33301 0 19.333 -4 30 -12s20 -17.333 28 -28
s12 -20.667 12 -30c0 -8 -4.16699 -17.667 -12.5 -29s-17.833 -21 -28.5 -29s-20.334 -12 -29.001 -12zM1000 0.000976562v134c7.33301 0 12.5 -6.16699 15.5 -18.5s4.5 -28.5 4.5 -48.5c0 -20.667 -1.5 -37 -4.5 -49s-8.16699 -18 -15.5 -18zM856.001 587.001
c-8.66699 0 -18.4971 4 -29.4971 12s-20.5 17.5 -28.5 28.5s-12 20.833 -12 29.5c0 9.33301 4 19.333 12 30s17.5 20 28.5 28s20.833 12 29.5 12c9.33301 0 19.166 -4 29.499 -12s19.666 -17.333 27.999 -28s12.5 -20.667 12.5 -30c0 -8 -4.16699 -17.667 -12.5 -29
s-17.833 -21 -28.5 -29s-20.334 -12 -29.001 -12z" />
    <glyph glyph-name="uniFC8E" unicode="&#xfee8;&#xfef0;" horiz-adv-x="1157" arabic-form="final" 
d="M952 0v470h120v-336h85v-134h-205zM65 -64c0 24 1.16699 48.8291 3.5 74.4961s6 50.5 11 74.5s10.833 46.333 17.5 67l116 -19c-8 -30.667 -14.833 -60.167 -20.5 -88.5s-8.5 -55.833 -8.5 -82.5c0 -23.333 0.833008 -43.5 2.5 -60.5s4.5 -33.5 8.5 -49.5h282
c48 0 86 1.33301 114 4s47.833 7.83398 59.5 15.501s17.5 18.834 17.5 33.501v154l-135 15c-45.333 5.33301 -80 15 -104 29s-40.5 34.667 -49.5 62s-13.5 62.666 -13.5 105.999c0 36.667 3 67.834 9 93.501s16.5 46.167 31.5 61.5s36 26.5 63 33.5s61.5 10.5 103.5 10.5
h379v-134h-459v-127l143 -15c40 -4 70.833 -12.833 92.5 -26.5s36.834 -33 45.501 -58s13 -56.833 13 -95.5v-75c0 -42.667 -5.5 -78.167 -16.5 -106.5s-30 -50.833 -57 -67.5s-64.667 -28.667 -113 -36s-109.5 -11 -183.5 -11c-70 0 -127.833 3 -173.5 9
s-81.334 16.833 -107.001 32.5s-44 37.834 -55 66.501s-16.5 65.334 -16.5 110.001zM1157 -0.00390625v134c7.33301 0 12.5 -6.16699 15.5 -18.5s4.5 -28.5 4.5 -48.5c0 -20.667 -1.5 -37 -4.5 -49s-8.16699 -18 -15.5 -18zM1012 586.996c-8.66699 0 -18.4971 4 -29.4971 12
s-20.5 17.5 -28.5 28.5s-12 20.833 -12 29.5c0 9.33301 4 19.333 12 30s17.5 20 28.5 28s20.833 12 29.5 12c9.33301 0 19.166 -4 29.499 -12s19.666 -17.333 27.999 -28s12.5 -20.667 12.5 -30c0 -8 -4.16699 -17.667 -12.5 -29s-17.833 -21 -28.5 -29
s-20.334 -12 -29.001 -12z" />
    <glyph glyph-name="uniFC8F" unicode="&#xfee8;&#xfef2;" horiz-adv-x="1157" arabic-form="final" 
d="M952 0v470h120v-336h85v-134h-205zM65 -64c0 24 1.16699 48.8291 3.5 74.4961s6 50.5 11 74.5s10.833 46.333 17.5 67l116 -19c-8 -30.667 -14.833 -60.167 -20.5 -88.5s-8.5 -55.833 -8.5 -82.5c0 -23.333 0.833008 -43.5 2.5 -60.5s4.5 -33.5 8.5 -49.5h282
c48 0 86 1.33301 114 4s47.833 7.83398 59.5 15.501s17.5 18.834 17.5 33.501v154l-135 15c-45.333 5.33301 -80 15 -104 29s-40.5 34.667 -49.5 62s-13.5 62.666 -13.5 105.999c0 36.667 3 67.834 9 93.501s16.5 46.167 31.5 61.5s36 26.5 63 33.5s61.5 10.5 103.5 10.5
h379v-134h-459v-127l143 -15c40 -4 70.833 -12.833 92.5 -26.5s36.834 -33 45.501 -58s13 -56.833 13 -95.5v-75c0 -42.667 -5.5 -78.167 -16.5 -106.5s-30 -50.833 -57 -67.5s-64.667 -28.667 -113 -36s-109.5 -11 -183.5 -11c-70 0 -127.833 3 -173.5 9
s-81.334 16.833 -107.001 32.5s-44 37.834 -55 66.501s-16.5 65.334 -16.5 110.001zM1157 -0.00390625v134c7.33301 0 12.5 -6.16699 15.5 -18.5s4.5 -28.5 4.5 -48.5c0 -20.667 -1.5 -37 -4.5 -49s-8.16699 -18 -15.5 -18zM1012 586.996c-8.66699 0 -18.4971 4 -29.4971 12
s-20.5 17.5 -28.5 28.5s-12 20.833 -12 29.5c0 9.33301 4 19.333 12 30s17.5 20 28.5 28s20.833 12 29.5 12c9.33301 0 19.166 -4 29.499 -12s19.666 -17.333 27.999 -28s12.5 -20.667 12.5 -30c0 -8 -4.16699 -17.667 -12.5 -29s-17.833 -21 -28.5 -29
s-20.334 -12 -29.001 -12zM351.003 -470.004c-8.66699 0 -18.4971 4 -29.4971 12s-20.5 17.5 -28.5 28.5s-12 20.833 -12 29.5c0 9.33301 4 19.333 12 30s17.5 20 28.5 28s20.833 12 29.5 12c9.33301 0 19.166 -4 29.499 -12s19.666 -17.333 27.999 -28
s12.5 -20.667 12.5 -30c0 -8 -4.16699 -17.667 -12.5 -29s-17.833 -21 -28.5 -29s-20.334 -12 -29.001 -12zM518.006 -470.004c-8.66699 0 -18.4971 4 -29.4971 12s-20.5 17.5 -28.5 28.5s-12 20.833 -12 29.5c0 9.33301 4 19.333 12 30s17.5 20 28.5 28s20.833 12 29.5 12
c9.33301 0 19.166 -4 29.499 -12s19.666 -17.333 27.999 -28s12.5 -20.667 12.5 -30c0 -8 -4.16699 -17.667 -12.5 -29s-17.833 -21 -28.5 -29s-20.334 -12 -29.001 -12z" />
    <glyph glyph-name="uniFC91" unicode="&#xfef4;&#xfeae;" horiz-adv-x="654" arabic-form="final" 
d="M68 -272l-45 106.002c26 12 46.167 25 60.5 39s24.333 32.167 30 54.5s8.5 51.166 8.5 86.499v456h119v-456c0 -50.667 -5.83301 -93.834 -17.5 -129.501s-30 -66.167 -55 -91.5s-58.5 -47 -100.5 -65zM240 336.002v134h209v-134h-209zM449 0.00195312v470h119v-336h86
v-134h-205zM654 0.00195312v134c6.66699 0 11.667 -6.16699 15 -18.5s5 -28.5 5 -48.5c0 -20.667 -1.66699 -37 -5 -49s-8.33301 -18 -15 -18zM423 -219.998c-8.66699 0 -18.4971 4 -29.4971 12s-20.5 17.5 -28.5 28.5s-12 20.833 -12 29.5c0 9.33301 4 19.333 12 30
s17.5 20 28.5 28s20.833 12 29.5 12c9.33301 0 19.166 -4 29.499 -12s19.666 -17.333 27.999 -28s12.5 -20.667 12.5 -30c0 -8 -4.16699 -17.667 -12.5 -29s-17.833 -21 -28.5 -29s-20.334 -12 -29.001 -12zM590.003 -219.998c-8.66699 0 -18.4971 4 -29.4971 12
s-20.5 17.5 -28.5 28.5s-12 20.833 -12 29.5c0 9.33301 4 19.333 12 30s17.5 20 28.5 28s20.833 12 29.5 12c9.33301 0 19.166 -4 29.499 -12s19.666 -17.333 27.999 -28s12.5 -20.667 12.5 -30c0 -8 -4.16699 -17.667 -12.5 -29s-17.833 -21 -28.5 -29
s-20.334 -12 -29.001 -12z" />
    <glyph glyph-name="uniFC92" unicode="&#xfef4;&#xfeb0;" horiz-adv-x="654" arabic-form="final" 
d="M68 -272l-45 106.002c26 12 46.167 25 60.5 39s24.333 32.167 30 54.5s8.5 51.166 8.5 86.499v456h119v-456c0 -50.667 -5.83301 -93.834 -17.5 -129.501s-30 -66.167 -55 -91.5s-58.5 -47 -100.5 -65zM240 336.002v134h209v-134h-209zM449 0.00195312v470h119v-336h86
v-134h-205zM654 0.00195312v134c6.66699 0 11.667 -6.16699 15 -18.5s5 -28.5 5 -48.5c0 -20.667 -1.66699 -37 -5 -49s-8.33301 -18 -15 -18zM423 -219.998c-8.66699 0 -18.4971 4 -29.4971 12s-20.5 17.5 -28.5 28.5s-12 20.833 -12 29.5c0 9.33301 4 19.333 12 30
s17.5 20 28.5 28s20.833 12 29.5 12c9.33301 0 19.166 -4 29.499 -12s19.666 -17.333 27.999 -28s12.5 -20.667 12.5 -30c0 -8 -4.16699 -17.667 -12.5 -29s-17.833 -21 -28.5 -29s-20.334 -12 -29.001 -12zM590.003 -219.998c-8.66699 0 -18.4971 4 -29.4971 12
s-20.5 17.5 -28.5 28.5s-12 20.833 -12 29.5c0 9.33301 4 19.333 12 30s17.5 20 28.5 28s20.833 12 29.5 12c9.33301 0 19.166 -4 29.499 -12s19.666 -17.333 27.999 -28s12.5 -20.667 12.5 -30c0 -8 -4.16699 -17.667 -12.5 -29s-17.833 -21 -28.5 -29
s-20.334 -12 -29.001 -12zM181.006 587.002c-8.66699 0 -18.4971 4 -29.4971 12s-20.5 17.5 -28.5 28.5s-12 20.833 -12 29.5c0 9.33301 4 19.333 12 30s17.5 20 28.5 28s20.833 12 29.5 12c9.33301 0 19.166 -4 29.499 -12s19.666 -17.333 27.999 -28
s12.5 -20.667 12.5 -30c0 -8 -4.16699 -17.667 -12.5 -29s-17.833 -21 -28.5 -29s-20.334 -12 -29.001 -12z" />
    <glyph glyph-name="uniFC94" unicode="&#xfef4;&#xfee6;" horiz-adv-x="1000" arabic-form="final" 
d="M796 0v470h119v-336h85v-134h-204zM587 336v134h209v-134h-209zM317 -240c-51.333 0 -93.501 3.50098 -126.501 10.501s-58.667 19.167 -77 36.5s-31 41.333 -38 72s-10.5 69.667 -10.5 117c0 28 1.16699 56.333 3.5 85s6 56.667 11 84s10.833 53 17.5 77l112 -18
c-8 -36.667 -14.167 -72 -18.5 -106s-6.5 -66.667 -6.5 -98c0 -26.667 0.833008 -49.834 2.5 -69.501s4.5 -38.167 8.5 -55.5h157c40.667 0 70.167 3.5 88.5 10.5s27.5 21.167 27.5 42.5v522h119v-484c0 -44.667 -3.5 -81.667 -10.5 -111s-20 -52.5 -39 -69.5
s-46.167 -28.833 -81.5 -35.5s-81.666 -10 -138.999 -10zM327.999 595.001c-8.66699 0 -18.332 4 -28.999 12s-20.167 17.5 -28.5 28.5s-12.5 20.833 -12.5 29.5c0 9.33301 4 19.333 12 30s17.5 20 28.5 28s20.833 12 29.5 12c9.33301 0 19.333 -4 30 -12s20 -17.333 28 -28
s12 -20.667 12 -30c0 -8 -4.16699 -17.667 -12.5 -29s-17.833 -21 -28.5 -29s-20.334 -12 -29.001 -12zM1000 0.000976562v134c7.33301 0 12.5 -6.16699 15.5 -18.5s4.5 -28.5 4.5 -48.5c0 -20.667 -1.5 -37 -4.5 -49s-8.16699 -18 -15.5 -18zM771.001 -219.999
c-8.66699 0 -18.4971 4 -29.4971 12s-20.5 17.5 -28.5 28.5s-12 20.833 -12 29.5c0 9.33301 4 19.333 12 30s17.5 20 28.5 28s20.833 12 29.5 12c9.33301 0 19.166 -4 29.499 -12s19.666 -17.333 27.999 -28s12.5 -20.667 12.5 -30c0 -8 -4.16699 -17.667 -12.5 -29
s-17.833 -21 -28.5 -29s-20.334 -12 -29.001 -12zM938.004 -219.999c-8.66699 0 -18.4971 4 -29.4971 12s-20.5 17.5 -28.5 28.5s-12 20.833 -12 29.5c0 9.33301 4 19.333 12 30s17.5 20 28.5 28s20.833 12 29.5 12c9.33301 0 19.166 -4 29.499 -12
s19.666 -17.333 27.999 -28s12.5 -20.667 12.5 -30c0 -8 -4.16699 -17.667 -12.5 -29s-17.833 -21 -28.5 -29s-20.334 -12 -29.001 -12z" />
    <glyph glyph-name="uniFCFB" unicode="&#xfeb3;&#xfef0;" horiz-adv-x="1805" arabic-form="isolated" 
d="M417 -282c-70 0 -127.833 2.99609 -173.5 8.99609s-81.334 16.833 -107.001 32.5s-44 37.834 -55 66.501s-16.5 65.334 -16.5 110.001c0 24 1.16699 48.833 3.5 74.5s6 50.5 11 74.5s10.833 46.333 17.5 67l116 -19c-8 -30.667 -14.833 -60.167 -20.5 -88.5
s-8.5 -55.833 -8.5 -82.5c0 -23.333 0.833008 -43.5 2.5 -60.5s4.5 -33.5 8.5 -49.5h282c48 0 86 1.33301 114 4s47.833 7.83398 59.5 15.501s17.5 18.834 17.5 33.501v154l-135 15c-45.333 5.33301 -80 15 -104 29s-40.5 34.667 -49.5 62s-13.5 62.666 -13.5 105.999
c0 36.667 3 67.834 9 93.501s16.5 46.167 31.5 61.5s36 26.5 63 33.5s61.5 10.5 103.5 10.5h379v-134h-459v-127l143 -15c40 -4 70.833 -12.833 92.5 -26.5s36.834 -33 45.501 -58s13 -56.833 13 -95.5v-75c0 -42.667 -5.5 -78.167 -16.5 -106.5s-30 -50.833 -57 -67.5
s-64.667 -28.667 -113 -36s-109.5 -11 -183.5 -11zM952 -0.00390625v470h120v-470h-120zM1072 -0.00390625l0.00292969 134h133c25.333 0 44.166 3.5 56.499 10.5s18.5 21.167 18.5 42.5v193h120v-157c0 -44.667 -3.16699 -81.5 -9.5 -110.5s-17.833 -51.667 -34.5 -68
s-40.834 -27.833 -72.501 -34.5s-72.834 -10 -123.501 -10h-88zM1505 -0.00390625c-46.667 0 -84.667 3.33008 -114 9.99707s-52 18.167 -68 34.5s-27.167 39 -33.5 68s-9.5 65.833 -9.5 110.5v157h120v-193c0 -21.333 6.16699 -35.5 18.5 -42.5s31.5 -10.5 57.5 -10.5h122
c4 16.667 6.66699 34.834 8 54.501s2 42.5 2 68.5c0 30.667 -2.5 62.167 -7.5 94.5s-11.5 65.5 -19.5 99.5l118 18c6.66699 -19.333 12 -40.666 16 -63.999s7.16699 -47.333 9.5 -72s3.5 -48 3.5 -70c0 -68 -7.5 -121.167 -22.5 -159.5s-38.833 -65.166 -71.5 -80.499
s-75.667 -23 -129 -23z" />
    <glyph glyph-name="uniFCFC" unicode="&#xfeb3;&#xfef2;" horiz-adv-x="1805" arabic-form="isolated" 
d="M417 -282c-70 0 -127.833 2.99609 -173.5 8.99609s-81.334 16.833 -107.001 32.5s-44 37.834 -55 66.501s-16.5 65.334 -16.5 110.001c0 24 1.16699 48.833 3.5 74.5s6 50.5 11 74.5s10.833 46.333 17.5 67l116 -19c-8 -30.667 -14.833 -60.167 -20.5 -88.5
s-8.5 -55.833 -8.5 -82.5c0 -23.333 0.833008 -43.5 2.5 -60.5s4.5 -33.5 8.5 -49.5h282c48 0 86 1.33301 114 4s47.833 7.83398 59.5 15.501s17.5 18.834 17.5 33.501v154l-135 15c-45.333 5.33301 -80 15 -104 29s-40.5 34.667 -49.5 62s-13.5 62.666 -13.5 105.999
c0 36.667 3 67.834 9 93.501s16.5 46.167 31.5 61.5s36 26.5 63 33.5s61.5 10.5 103.5 10.5h379v-134h-459v-127l143 -15c40 -4 70.833 -12.833 92.5 -26.5s36.834 -33 45.501 -58s13 -56.833 13 -95.5v-75c0 -42.667 -5.5 -78.167 -16.5 -106.5s-30 -50.833 -57 -67.5
s-64.667 -28.667 -113 -36s-109.5 -11 -183.5 -11zM952 -0.00390625v470h120v-470h-120zM1072 -0.00390625l0.00292969 134h133c25.333 0 44.166 3.5 56.499 10.5s18.5 21.167 18.5 42.5v193h120v-157c0 -44.667 -3.16699 -81.5 -9.5 -110.5s-17.833 -51.667 -34.5 -68
s-40.834 -27.833 -72.501 -34.5s-72.834 -10 -123.501 -10h-88zM1505 -0.00390625c-46.667 0 -84.667 3.33008 -114 9.99707s-52 18.167 -68 34.5s-27.167 39 -33.5 68s-9.5 65.833 -9.5 110.5v157h120v-193c0 -21.333 6.16699 -35.5 18.5 -42.5s31.5 -10.5 57.5 -10.5h122
c4 16.667 6.66699 34.834 8 54.501s2 42.5 2 68.5c0 30.667 -2.5 62.167 -7.5 94.5s-11.5 65.5 -19.5 99.5l118 18c6.66699 -19.333 12 -40.666 16 -63.999s7.16699 -47.333 9.5 -72s3.5 -48 3.5 -70c0 -68 -7.5 -121.167 -22.5 -159.5s-38.833 -65.166 -71.5 -80.499
s-75.667 -23 -129 -23zM351.003 -470.007c-8.66699 0 -18.4971 4 -29.4971 12s-20.5 17.5 -28.5 28.5s-12 20.833 -12 29.5c0 9.33301 4 19.333 12 30s17.5 20 28.5 28s20.833 12 29.5 12c9.33301 0 19.166 -4 29.499 -12s19.666 -17.333 27.999 -28s12.5 -20.667 12.5 -30
c0 -8 -4.16699 -17.667 -12.5 -29s-17.833 -21 -28.5 -29s-20.334 -12 -29.001 -12zM518.006 -470.007c-8.66699 0 -18.4971 4 -29.4971 12s-20.5 17.5 -28.5 28.5s-12 20.833 -12 29.5c0 9.33301 4 19.333 12 30s17.5 20 28.5 28s20.833 12 29.5 12
c9.33301 0 19.166 -4 29.499 -12s19.666 -17.333 27.999 -28s12.5 -20.667 12.5 -30c0 -8 -4.16699 -17.667 -12.5 -29s-17.833 -21 -28.5 -29s-20.334 -12 -29.001 -12z" />
    <glyph glyph-name="uniFD0D" unicode="&#xfeb7;&#xfeae;" horiz-adv-x="1302" arabic-form="isolated" 
d="M1002 0c-46.667 0 -84.665 3.33008 -113.998 9.99707s-52 18.167 -68 34.5s-27.167 39 -33.5 68s-9.5 65.833 -9.5 110.5v157h120v-193c0 -21.333 6.16699 -35.5 18.5 -42.5s31.166 -10.5 56.499 -10.5h123c4 16.667 6.66699 34.834 8 54.501s2 42.5 2 68.5
c0 30.667 -2.5 62.167 -7.5 94.5s-11.5 65.5 -19.5 99.5l118 18c6 -19.333 11.167 -40.666 15.5 -63.999s7.66602 -47.333 9.99902 -72s3.5 -48 3.5 -70c0 -68 -7.5 -121.167 -22.5 -159.5s-38.833 -65.166 -71.5 -80.499s-75.667 -23 -129 -23zM68.002 -272.003
l-45 106.002c26 12 46.167 25 60.5 39s24.333 32.167 30 54.5s8.5 51.166 8.5 86.499v456h119v-456c0 -50.667 -5.83301 -93.834 -17.5 -129.501s-30 -66.167 -55 -91.5s-58.5 -47 -100.5 -65zM240.002 335.999v134h209v-134h-209zM449.002 -0.000976562v470h119v-470h-119z
M568.002 -0.000976562l0.00195312 134h133c26 0 45.167 3.5 57.5 10.5s18.5 21.167 18.5 42.5v193h120v-157c0 -44.667 -3.16699 -81.5 -9.5 -110.5s-17.833 -51.667 -34.5 -68s-40.834 -27.833 -72.501 -34.5s-72.834 -10 -123.501 -10h-89zM754.004 586.999
c-8.66699 0 -18.4971 4 -29.4971 12s-20.5 17.5 -28.5 28.5s-12 20.833 -12 29.5c0 9.33301 4 19.333 12 30s17.5 20 28.5 28s20.833 12 29.5 12c9.33301 0 19.166 -4 29.499 -12s19.666 -17.333 27.999 -28s12.5 -20.667 12.5 -30c0 -8 -4.16699 -17.667 -12.5 -29
s-17.833 -21 -28.5 -29s-20.334 -12 -29.001 -12zM921.007 586.999c-8.66699 0 -18.4971 4 -29.4971 12s-20.5 17.5 -28.5 28.5s-12 20.833 -12 29.5c0 9.33301 4 19.333 12 30s17.5 20 28.5 28s20.833 12 29.5 12c9.33301 0 19.166 -4 29.499 -12
s19.666 -17.333 27.999 -28s12.5 -20.667 12.5 -30c0 -8 -4.16699 -17.667 -12.5 -29s-17.833 -21 -28.5 -29s-20.334 -12 -29.001 -12zM837.01 763.999c-8.66699 0 -18.4971 4 -29.4971 12s-20.5 17.5 -28.5 28.5s-12 20.833 -12 29.5c0 9.33301 4 19.333 12 30
s17.5 20 28.5 28s20.833 12 29.5 12c9.33301 0 19.166 -4 29.499 -12s19.666 -17.333 27.999 -28s12.5 -20.667 12.5 -30c0 -8 -4.16699 -17.667 -12.5 -29s-17.833 -21 -28.5 -29s-20.334 -12 -29.001 -12z" />
    <glyph glyph-name="uniFD0E" unicode="&#xfeb3;&#xfeae;" horiz-adv-x="1302" arabic-form="isolated" 
d="M1002 0c-46.667 0 -84.665 3.33008 -113.998 9.99707s-52 18.167 -68 34.5s-27.167 39 -33.5 68s-9.5 65.833 -9.5 110.5v157h120v-193c0 -21.333 6.16699 -35.5 18.5 -42.5s31.166 -10.5 56.499 -10.5h123c4 16.667 6.66699 34.834 8 54.501s2 42.5 2 68.5
c0 30.667 -2.5 62.167 -7.5 94.5s-11.5 65.5 -19.5 99.5l118 18c6 -19.333 11.167 -40.666 15.5 -63.999s7.66602 -47.333 9.99902 -72s3.5 -48 3.5 -70c0 -68 -7.5 -121.167 -22.5 -159.5s-38.833 -65.166 -71.5 -80.499s-75.667 -23 -129 -23zM68.002 -272.003
l-45 106.002c26 12 46.167 25 60.5 39s24.333 32.167 30 54.5s8.5 51.166 8.5 86.499v456h119v-456c0 -50.667 -5.83301 -93.834 -17.5 -129.501s-30 -66.167 -55 -91.5s-58.5 -47 -100.5 -65zM240.002 335.999v134h209v-134h-209zM449.002 -0.000976562v470h119v-470h-119z
M568.002 -0.000976562l0.00195312 134h133c26 0 45.167 3.5 57.5 10.5s18.5 21.167 18.5 42.5v193h120v-157c0 -44.667 -3.16699 -81.5 -9.5 -110.5s-17.833 -51.667 -34.5 -68s-40.834 -27.833 -72.501 -34.5s-72.834 -10 -123.501 -10h-89z" />
    <glyph glyph-name="uniFD0F" unicode="&#xfebb;&#xfeae;" horiz-adv-x="1143" arabic-form="isolated" 
d="M941 -1l-0.000976562 334.998c-23.333 7.33301 -62 11 -116 11c-86 0 -150.333 -21.167 -193 -63.5s-64 -106.833 -64 -193.5h-119v381h119v-155c14.667 34 36.834 63.333 66.501 88s65.167 43.667 106.5 57s86.666 20 135.999 20c46.667 0 83.334 -4.66699 110.001 -14
s45.5 -25.166 56.5 -47.499s16.5 -53.166 16.5 -92.499v-326h-119zM67.999 -272.002l-45 106c26 12 46.167 25 60.5 39s24.333 32 30 54s8.5 50.667 8.5 86v456h119v-456c0 -50 -5.83301 -93 -17.5 -129s-30 -66.5 -55 -91.5s-58.5 -46.5 -100.5 -64.5zM239.999 334.998v134
h209v-134h-209zM448.999 -1.00195v135h611v-135h-611z" />
    <glyph glyph-name="uniFD10" unicode="&#xfebf;&#xfeae;" horiz-adv-x="1143" arabic-form="isolated" 
d="M941 -1l-0.000976562 334.998c-23.333 7.33301 -62 11 -116 11c-86 0 -150.333 -21.167 -193 -63.5s-64 -106.833 -64 -193.5h-119v381h119v-155c14.667 34 36.834 63.333 66.501 88s65.167 43.667 106.5 57s86.666 20 135.999 20c46.667 0 83.334 -4.66699 110.001 -14
s45.5 -25.166 56.5 -47.499s16.5 -53.166 16.5 -92.499v-326h-119zM67.999 -272.002l-45 106c26 12 46.167 25 60.5 39s24.333 32 30 54s8.5 50.667 8.5 86v456h119v-456c0 -50 -5.83301 -93 -17.5 -129s-30 -66.5 -55 -91.5s-58.5 -46.5 -100.5 -64.5zM239.999 334.998v134
h209v-134h-209zM448.999 -1.00195v135h611v-135h-611zM798.999 586.998c-8.66699 0 -18.4971 4 -29.4971 12s-20.5 17.5 -28.5 28.5s-12 20.833 -12 29.5c0 9.33301 4 19.333 12 30s17.5 20 28.5 28s20.833 12 29.5 12c9.33301 0 19.166 -4 29.499 -12
s19.666 -17.333 27.999 -28s12.5 -20.667 12.5 -30c0 -8 -4.16699 -17.667 -12.5 -29s-17.833 -21 -28.5 -29s-20.334 -12 -29.001 -12z" />
    <glyph glyph-name="uniFD17" unicode="&#xfeb4;&#xfef0;" horiz-adv-x="1813" arabic-form="final" 
d="M1505 0l145 134h163v-134h-308zM417 -282c-70 0 -127.833 2.99609 -173.5 8.99609s-81.334 16.833 -107.001 32.5s-44 37.834 -55 66.501s-16.5 65.334 -16.5 110.001c0 24 1.16699 48.833 3.5 74.5s6 50.5 11 74.5s10.833 46.333 17.5 67l116 -19
c-8 -30.667 -14.833 -60.167 -20.5 -88.5s-8.5 -55.833 -8.5 -82.5c0 -23.333 0.833008 -43.5 2.5 -60.5s4.5 -33.5 8.5 -49.5h282c48 0 86 1.33301 114 4s47.833 7.83398 59.5 15.501s17.5 18.834 17.5 33.501v154l-135 15c-45.333 5.33301 -80 15 -104 29
s-40.5 34.667 -49.5 62s-13.5 62.666 -13.5 105.999c0 36.667 3 67.834 9 93.501s16.5 46.167 31.5 61.5s36 26.5 63 33.5s61.5 10.5 103.5 10.5h379v-134h-459v-127l143 -15c40 -4 70.833 -12.833 92.5 -26.5s36.834 -33 45.501 -58s13 -56.833 13 -95.5v-75
c0 -42.667 -5.5 -78.167 -16.5 -106.5s-30 -50.833 -57 -67.5s-64.667 -28.667 -113 -36s-109.5 -11 -183.5 -11zM952 -0.00390625v470h120v-470h-120zM1072 -0.00390625l0.00292969 134h133c25.333 0 44.166 3.5 56.499 10.5s18.5 21.167 18.5 42.5v193h120v-157
c0 -44.667 -3.16699 -81.5 -9.5 -110.5s-17.833 -51.667 -34.5 -68s-40.834 -27.833 -72.501 -34.5s-72.834 -10 -123.501 -10h-88zM1505 -0.00390625c-46.667 0 -84.667 3.33008 -114 9.99707s-52 18.167 -68 34.5s-27.167 39 -33.5 68s-9.5 65.833 -9.5 110.5v157h120
v-193c0 -21.333 6.16699 -35.5 18.5 -42.5s31.5 -10.5 57.5 -10.5h122c4 16.667 6.66699 34.834 8 54.501s2 42.5 2 68.5c0 30.667 -2.5 62.167 -7.5 94.5s-11.5 65.5 -19.5 99.5l118 18c6.66699 -19.333 12 -40.666 16 -63.999s7.16699 -47.333 9.5 -72s3.5 -48 3.5 -70
c0 -68 -7.5 -121.167 -22.5 -159.5s-38.833 -65.166 -71.5 -80.499s-75.667 -23 -129 -23zM1813 -0.00683594v134c7.33301 0 12.5 -6.16699 15.5 -18.5s4.5 -28.5 4.5 -48.5c0 -20.667 -1.5 -37 -4.5 -49s-8.16699 -18 -15.5 -18z" />
    <glyph glyph-name="uniFD18" unicode="&#xfeb4;&#xfef2;" horiz-adv-x="1813" arabic-form="final" 
d="M1505 0l145 134h163v-134h-308zM417 -282c-70 0 -127.833 2.99609 -173.5 8.99609s-81.334 16.833 -107.001 32.5s-44 37.834 -55 66.501s-16.5 65.334 -16.5 110.001c0 24 1.16699 48.833 3.5 74.5s6 50.5 11 74.5s10.833 46.333 17.5 67l116 -19
c-8 -30.667 -14.833 -60.167 -20.5 -88.5s-8.5 -55.833 -8.5 -82.5c0 -23.333 0.833008 -43.5 2.5 -60.5s4.5 -33.5 8.5 -49.5h282c48 0 86 1.33301 114 4s47.833 7.83398 59.5 15.501s17.5 18.834 17.5 33.501v154l-135 15c-45.333 5.33301 -80 15 -104 29
s-40.5 34.667 -49.5 62s-13.5 62.666 -13.5 105.999c0 36.667 3 67.834 9 93.501s16.5 46.167 31.5 61.5s36 26.5 63 33.5s61.5 10.5 103.5 10.5h379v-134h-459v-127l143 -15c40 -4 70.833 -12.833 92.5 -26.5s36.834 -33 45.501 -58s13 -56.833 13 -95.5v-75
c0 -42.667 -5.5 -78.167 -16.5 -106.5s-30 -50.833 -57 -67.5s-64.667 -28.667 -113 -36s-109.5 -11 -183.5 -11zM952 -0.00390625v470h120v-470h-120zM1072 -0.00390625l0.00292969 134h133c25.333 0 44.166 3.5 56.499 10.5s18.5 21.167 18.5 42.5v193h120v-157
c0 -44.667 -3.16699 -81.5 -9.5 -110.5s-17.833 -51.667 -34.5 -68s-40.834 -27.833 -72.501 -34.5s-72.834 -10 -123.501 -10h-88zM1505 -0.00390625c-46.667 0 -84.667 3.33008 -114 9.99707s-52 18.167 -68 34.5s-27.167 39 -33.5 68s-9.5 65.833 -9.5 110.5v157h120
v-193c0 -21.333 6.16699 -35.5 18.5 -42.5s31.5 -10.5 57.5 -10.5h122c4 16.667 6.66699 34.834 8 54.501s2 42.5 2 68.5c0 30.667 -2.5 62.167 -7.5 94.5s-11.5 65.5 -19.5 99.5l118 18c6.66699 -19.333 12 -40.666 16 -63.999s7.16699 -47.333 9.5 -72s3.5 -48 3.5 -70
c0 -68 -7.5 -121.167 -22.5 -159.5s-38.833 -65.166 -71.5 -80.499s-75.667 -23 -129 -23zM1813 -0.00683594v134c7.33301 0 12.5 -6.16699 15.5 -18.5s4.5 -28.5 4.5 -48.5c0 -20.667 -1.5 -37 -4.5 -49s-8.16699 -18 -15.5 -18zM351.003 -470.007
c-8.66699 0 -18.4971 4 -29.4971 12s-20.5 17.5 -28.5 28.5s-12 20.833 -12 29.5c0 9.33301 4 19.333 12 30s17.5 20 28.5 28s20.833 12 29.5 12c9.33301 0 19.166 -4 29.499 -12s19.666 -17.333 27.999 -28s12.5 -20.667 12.5 -30c0 -8 -4.16699 -17.667 -12.5 -29
s-17.833 -21 -28.5 -29s-20.334 -12 -29.001 -12zM518.006 -470.007c-8.66699 0 -18.4971 4 -29.4971 12s-20.5 17.5 -28.5 28.5s-12 20.833 -12 29.5c0 9.33301 4 19.333 12 30s17.5 20 28.5 28s20.833 12 29.5 12c9.33301 0 19.166 -4 29.499 -12
s19.666 -17.333 27.999 -28s12.5 -20.667 12.5 -30c0 -8 -4.16699 -17.667 -12.5 -29s-17.833 -21 -28.5 -29s-20.334 -12 -29.001 -12z" />
    <glyph glyph-name="uniFD29" unicode="&#xfeb8;&#xfeae;" horiz-adv-x="1310" arabic-form="final" 
d="M1002 0l145 134h163v-134h-308zM1002 0c-46.667 0 -84.665 3.33008 -113.998 9.99707s-52 18.167 -68 34.5s-27.167 39 -33.5 68s-9.5 65.833 -9.5 110.5v157h120v-193c0 -21.333 6.16699 -35.5 18.5 -42.5s31.166 -10.5 56.499 -10.5h123
c4 16.667 6.66699 34.834 8 54.501s2 42.5 2 68.5c0 30.667 -2.5 62.167 -7.5 94.5s-11.5 65.5 -19.5 99.5l118 18c6 -19.333 11.167 -40.666 15.5 -63.999s7.66602 -47.333 9.99902 -72s3.5 -48 3.5 -70c0 -68 -7.5 -121.167 -22.5 -159.5s-38.833 -65.166 -71.5 -80.499
s-75.667 -23 -129 -23zM68.002 -272.003l-45 106.002c26 12 46.167 25 60.5 39s24.333 32.167 30 54.5s8.5 51.166 8.5 86.499v456h119v-456c0 -50.667 -5.83301 -93.834 -17.5 -129.501s-30 -66.167 -55 -91.5s-58.5 -47 -100.5 -65zM240.002 335.999v134h209v-134h-209z
M449.002 -0.000976562v470h119v-470h-119zM568.002 -0.000976562l0.00195312 134h133c26 0 45.167 3.5 57.5 10.5s18.5 21.167 18.5 42.5v193h120v-157c0 -44.667 -3.16699 -81.5 -9.5 -110.5s-17.833 -51.667 -34.5 -68s-40.834 -27.833 -72.501 -34.5
s-72.834 -10 -123.501 -10h-89zM1310 -0.000976562v134c6.66699 0 11.667 -6.16699 15 -18.5s5 -28.5 5 -48.5c0 -20.667 -1.66699 -37 -5 -49s-8.33301 -18 -15 -18zM754.004 586.999c-8.66699 0 -18.4971 4 -29.4971 12s-20.5 17.5 -28.5 28.5s-12 20.833 -12 29.5
c0 9.33301 4 19.333 12 30s17.5 20 28.5 28s20.833 12 29.5 12c9.33301 0 19.166 -4 29.499 -12s19.666 -17.333 27.999 -28s12.5 -20.667 12.5 -30c0 -8 -4.16699 -17.667 -12.5 -29s-17.833 -21 -28.5 -29s-20.334 -12 -29.001 -12zM921.007 586.999
c-8.66699 0 -18.4971 4 -29.4971 12s-20.5 17.5 -28.5 28.5s-12 20.833 -12 29.5c0 9.33301 4 19.333 12 30s17.5 20 28.5 28s20.833 12 29.5 12c9.33301 0 19.166 -4 29.499 -12s19.666 -17.333 27.999 -28s12.5 -20.667 12.5 -30c0 -8 -4.16699 -17.667 -12.5 -29
s-17.833 -21 -28.5 -29s-20.334 -12 -29.001 -12zM837.01 763.999c-8.66699 0 -18.4971 4 -29.4971 12s-20.5 17.5 -28.5 28.5s-12 20.833 -12 29.5c0 9.33301 4 19.333 12 30s17.5 20 28.5 28s20.833 12 29.5 12c9.33301 0 19.166 -4 29.499 -12s19.666 -17.333 27.999 -28
s12.5 -20.667 12.5 -30c0 -8 -4.16699 -17.667 -12.5 -29s-17.833 -21 -28.5 -29s-20.334 -12 -29.001 -12z" />
    <glyph glyph-name="uniFD2A" unicode="&#xfeb4;&#xfeae;" horiz-adv-x="1310" arabic-form="final" 
d="M1002 0l145 134h163v-134h-308zM1002 0c-46.667 0 -84.665 3.33008 -113.998 9.99707s-52 18.167 -68 34.5s-27.167 39 -33.5 68s-9.5 65.833 -9.5 110.5v157h120v-193c0 -21.333 6.16699 -35.5 18.5 -42.5s31.166 -10.5 56.499 -10.5h123
c4 16.667 6.66699 34.834 8 54.501s2 42.5 2 68.5c0 30.667 -2.5 62.167 -7.5 94.5s-11.5 65.5 -19.5 99.5l118 18c6 -19.333 11.167 -40.666 15.5 -63.999s7.66602 -47.333 9.99902 -72s3.5 -48 3.5 -70c0 -68 -7.5 -121.167 -22.5 -159.5s-38.833 -65.166 -71.5 -80.499
s-75.667 -23 -129 -23zM68.002 -272.003l-45 106.002c26 12 46.167 25 60.5 39s24.333 32.167 30 54.5s8.5 51.166 8.5 86.499v456h119v-456c0 -50.667 -5.83301 -93.834 -17.5 -129.501s-30 -66.167 -55 -91.5s-58.5 -47 -100.5 -65zM240.002 335.999v134h209v-134h-209z
M449.002 -0.000976562v470h119v-470h-119zM568.002 -0.000976562l0.00195312 134h133c26 0 45.167 3.5 57.5 10.5s18.5 21.167 18.5 42.5v193h120v-157c0 -44.667 -3.16699 -81.5 -9.5 -110.5s-17.833 -51.667 -34.5 -68s-40.834 -27.833 -72.501 -34.5
s-72.834 -10 -123.501 -10h-89zM1310 -0.000976562v134c6.66699 0 11.667 -6.16699 15 -18.5s5 -28.5 5 -48.5c0 -20.667 -1.66699 -37 -5 -49s-8.33301 -18 -15 -18z" />
    <glyph glyph-name="uniFD2B" unicode="&#xfebc;&#xfeae;" horiz-adv-x="1146" arabic-form="final" 
d="M1060 0v134h86v-134h-86zM941 -1l-0.000976562 334.998c-23.333 7.33301 -62 11 -116 11c-86 0 -150.333 -21.167 -193 -63.5s-64 -106.833 -64 -193.5h-119v381h119v-155c14.667 34 36.834 63.333 66.501 88s65.167 43.667 106.5 57s86.666 20 135.999 20
c46.667 0 83.334 -4.66699 110.001 -14s45.5 -25.166 56.5 -47.499s16.5 -53.166 16.5 -92.499v-326h-119zM67.999 -272.002l-45 106c26 12 46.167 25 60.5 39s24.333 32 30 54s8.5 50.667 8.5 86v456h119v-456c0 -50 -5.83301 -93 -17.5 -129s-30 -66.5 -55 -91.5
s-58.5 -46.5 -100.5 -64.5zM239.999 334.998v134h209v-134h-209zM448.999 -1.00195v135h611v-135h-611zM1146 -0.00195312v134c6.66699 0 11.667 -6.16699 15 -18.5s5 -28.5 5 -48.5c0 -20.667 -1.66699 -37 -5 -49s-8.33301 -18 -15 -18z" />
    <glyph glyph-name="uniFD2C" unicode="&#xfec0;&#xfeae;" horiz-adv-x="1146" arabic-form="final" 
d="M1060 0v134h86v-134h-86zM941 -1l-0.000976562 334.998c-23.333 7.33301 -62 11 -116 11c-86 0 -150.333 -21.167 -193 -63.5s-64 -106.833 -64 -193.5h-119v381h119v-155c14.667 34 36.834 63.333 66.501 88s65.167 43.667 106.5 57s86.666 20 135.999 20
c46.667 0 83.334 -4.66699 110.001 -14s45.5 -25.166 56.5 -47.499s16.5 -53.166 16.5 -92.499v-326h-119zM67.999 -272.002l-45 106c26 12 46.167 25 60.5 39s24.333 32 30 54s8.5 50.667 8.5 86v456h119v-456c0 -50 -5.83301 -93 -17.5 -129s-30 -66.5 -55 -91.5
s-58.5 -46.5 -100.5 -64.5zM239.999 334.998v134h209v-134h-209zM448.999 -1.00195v135h611v-135h-611zM1146 -0.00195312v134c6.66699 0 11.667 -6.16699 15 -18.5s5 -28.5 5 -48.5c0 -20.667 -1.66699 -37 -5 -49s-8.33301 -18 -15 -18zM808.999 586.998
c-8.66699 0 -18.4971 4 -29.4971 12s-20.5 17.5 -28.5 28.5s-12 20.833 -12 29.5c0 9.33301 4 19.333 12 30s17.5 20 28.5 28s20.833 12 29.5 12c9.33301 0 19.166 -4 29.499 -12s19.666 -17.333 27.999 -28s12.5 -20.667 12.5 -30c0 -8 -4.16699 -17.667 -12.5 -29
s-17.833 -21 -28.5 -29s-20.334 -12 -29.001 -12z" />
    <glyph glyph-name="uniFDF2" unicode="&#x627;&#xfedf;&#xfee0;&#xfeea;" horiz-adv-x="1574" arabic-form="isolated" 
d="M1370 0v630h120v-630h-120zM971 0v134h135v496h119v-630h-254zM971 0c-7.33301 0 -12.5 6 -15.5 18s-4.5 28.333 -4.5 49c0 20 1.5 36.167 4.5 48.5s8.16699 18.5 15.5 18.5v-134zM886 0v134h86v-134h-86zM632 0v134h135v496h119v-630h-254zM632 0
c-7.33301 0 -12.5 6 -15.5 18s-4.5 28.333 -4.5 49c0 20 1.5 36.167 4.5 48.5s8.16699 18.5 15.5 18.5v-134zM972 0v134c6.66699 0 11.667 -6.16699 15 -18.5s5 -28.5 5 -48.5c0 -20.667 -1.66699 -37 -5 -49s-8.33301 -18 -15 -18zM549 0v134h83v-134h-83zM295 0
c-45.333 0 -82.666 3.16504 -111.999 9.49805s-52 18 -68 35s-27 40.833 -33 71.5s-9 70.334 -9 119.001s3 88.334 9 119.001s17 54.5 33 71.5s38.667 28.667 68 35s66.666 9.5 111.999 9.5h257v-470h-257zM252 133.998h180v202h-180c-18 0 -31.333 -3.5 -40 -10.5
s-13 -18.167 -13 -33.5v-114c0 -15.333 4.33301 -26.5 13 -33.5s22 -10.5 40 -10.5zM632 -0.00195312v134c6.66699 0 11.667 -6.16699 15 -18.5s5 -28.5 5 -48.5c0 -20.667 -1.66699 -37 -5 -49s-8.33301 -18 -15 -18zM725.617 727.07
c-12.8838 0 -22.4072 5.60254 -28.5684 16.8066c-6.16211 11.2041 -9.24316 29.1299 -9.24316 53.7773c0 15.6846 0.980469 31.6494 2.94043 47.8945c1.96094 16.2451 4.90234 31.0898 8.82324 44.5342l57.1387 8.40332
c-2.80176 -12.8838 -4.90234 -25.4883 -6.30273 -37.8125s-2.10059 -24.3682 -2.10059 -36.1318c0 -9.52246 0.419922 -17.7852 1.26074 -24.7881c0.84082 -7.00195 1.82129 -13.0234 2.94141 -18.0654l47.8955 12.6035c-3.9209 8.40332 -5.88184 22.9678 -5.88184 43.6943
v68.9023l58.8193 16.8057v-115.117l44.5342 11.7637v115.117l67.2217 26.8887l0.84082 -173.096l-221.832 -59.6592l-9.66309 -1.68066c-3.08105 -0.560547 -6.02246 -0.84082 -8.82422 -0.84082zM797.04 975.792v166.373l58.8184 15.125v-166.373z" />
    <glyph glyph-name="uniFEF5" unicode="&#xfedf;&#xfe82;" horiz-adv-x="655" arabic-form="isolated" 
d="M314 -15c-63.333 0 -112.999 5.66699 -148.999 17s-61.333 29.5 -76 54.5s-22 58.167 -22 99.5c0 32.667 3.66699 60.834 11 84.501s21 44 41 61s48.667 32.167 86 45.5l236 83v200h120v-181c0 -26.667 -1.33301 -48.334 -4 -65.001s-7.5 -29.5 -14.5 -38.5
s-17.5 -15.833 -31.5 -20.5v-7c25.333 -26 43.166 -51 53.499 -75s15.5 -51 15.5 -81c0 -62 -20.667 -107 -62 -135s-109.333 -42 -204 -42zM194.001 119h183.999c26.667 0 45.834 4.83301 57.501 14.5s17.5 21.167 17.5 34.5c0 10 -3 20 -9 30s-14.667 19.333 -26 28
l-53 42l-171 -60v-89zM278 340l-193 158l83 99l254 -208zM123 657c-10 0 -19 2.66699 -27 8s-19.333 16.333 -34 33l-64 -30l-20 36c25.333 19.333 45.333 34 60 44s26.334 16.667 35.001 20s16 5 22 5c6.66699 0 12.5 -1 17.5 -3s10.833 -6 17.5 -12s15 -14.667 25 -26
l65 30l20 -36c-24 -18.667 -43.5 -33 -58.5 -43s-26.833 -16.833 -35.5 -20.5s-16.334 -5.5 -23.001 -5.5z" />
    <glyph glyph-name="uniFEF6" unicode="&#xfee0;&#xfe82;" horiz-adv-x="679" arabic-form="final" 
d="M175 88l-40 457h119l41 -457h-120zM20 0v134h659v-134h-659zM475 88v542h119v-542h-119zM679 0v134c7.33301 0 12.5 -6.16699 15.5 -18.5s4.5 -28.5 4.5 -48.5c0 -20.667 -1.5 -37 -4.5 -49s-8.16699 -18 -15.5 -18zM208 682c-10 0 -19 2.66699 -27 8
s-19.333 16.333 -34 33l-64 -30l-20 36c25.333 19.333 45.333 34 60 44s26.334 16.667 35.001 20s16 5 22 5c6.66699 0 12.5 -1 17.5 -3s10.833 -6 17.5 -12s15 -14.667 25 -26l65 30l20 -36c-24 -18.667 -43.5 -33 -58.5 -43s-26.833 -16.833 -35.5 -20.5
s-16.334 -5.5 -23.001 -5.5z" />
    <glyph glyph-name="uniFEF7" unicode="&#xfedf;&#xfe84;" horiz-adv-x="655" arabic-form="isolated" 
d="M314 -15c-63.333 0 -112.999 5.66699 -148.999 17s-61.333 29.5 -76 54.5s-22 58.167 -22 99.5c0 32.667 3.66699 60.834 11 84.501s21 44 41 61s48.667 32.167 86 45.5l236 83v200h120v-181c0 -26.667 -1.33301 -48.334 -4 -65.001s-7.5 -29.5 -14.5 -38.5
s-17.5 -15.833 -31.5 -20.5v-7c25.333 -26 43.166 -51 53.499 -75s15.5 -51 15.5 -81c0 -62 -20.667 -107 -62 -135s-109.333 -42 -204 -42zM194.001 119h183.999c26.667 0 45.834 4.83301 57.501 14.5s17.5 21.167 17.5 34.5c0 10 -3 20 -9 30s-14.667 19.333 -26 28
l-53 42l-171 -60v-89zM278 340l-193 158l83 99l254 -208zM-6 627l0.00195312 57.999l40 11c-2.66699 8 -4.83398 16.833 -6.50098 26.5s-2.5 21.5 -2.5 35.5c0 36 7.16699 64 21.5 84s34.666 34.5 60.999 43.5s56.833 14.5 91.5 16.5v-69
c-16.667 -1.33301 -33 -3.66602 -49 -6.99902s-31.333 -8.33301 -46 -15v-66c0 -10.667 3 -17.5 9 -20.5s16.333 -2.5 31 1.5l82 22v-60z" />
    <glyph glyph-name="uniFEF8" unicode="&#xfee0;&#xfe84;" horiz-adv-x="679" arabic-form="final" 
d="M175 88l-40 457h119l41 -457h-120zM20 0v134h659v-134h-659zM475 88v542h119v-542h-119zM679 0v134c7.33301 0 12.5 -6.16699 15.5 -18.5s4.5 -28.5 4.5 -48.5c0 -20.667 -1.5 -37 -4.5 -49s-8.16699 -18 -15.5 -18zM79 652l0.00195312 57.999l40 11
c-2.66699 8 -4.83398 16.833 -6.50098 26.5s-2.5 21.5 -2.5 35.5c0 36 7.16699 64 21.5 84s34.666 34.5 60.999 43.5s56.833 14.5 91.5 16.5v-69c-16.667 -1.33301 -33 -3.66602 -49 -6.99902s-31.333 -8.33301 -46 -15v-66c0 -10.667 3 -17.5 9 -20.5s16.333 -2.5 31 1.5
l82 22v-60z" />
    <glyph glyph-name="uniFEF9" unicode="&#xfedf;&#xfe88;" horiz-adv-x="655" arabic-form="isolated" 
d="M314 -15c-63.333 0 -112.999 5.66699 -148.999 17s-61.333 29.5 -76 54.5s-22 58.167 -22 99.5c0 32.667 3.66699 60.834 11 84.501s21 44 41 61s48.667 32.167 86 45.5l236 83v200h120v-181c0 -26.667 -1.33301 -48.334 -4 -65.001s-7.5 -29.5 -14.5 -38.5
s-17.5 -15.833 -31.5 -20.5v-7c25.333 -26 43.166 -51 53.499 -75s15.5 -51 15.5 -81c0 -62 -20.667 -107 -62 -135s-109.333 -42 -204 -42zM194.001 119h183.999c26.667 0 45.834 4.83301 57.501 14.5s17.5 21.167 17.5 34.5c0 10 -3 20 -9 30s-14.667 19.333 -26 28
l-53 42l-171 -60v-89zM278 340l-193 158l83 99l254 -208zM26 -372l0.00195312 57.999l40 11c-2.66699 8 -4.83398 16.833 -6.50098 26.5s-2.5 21.5 -2.5 35.5c0 36 7.16699 64 21.5 84s34.666 34.5 60.999 43.5s56.833 14.5 91.5 16.5v-69
c-16.667 -1.33301 -33 -3.66602 -49 -6.99902s-31.333 -8.33301 -46 -15v-66c0 -10.667 3 -17.5 9 -20.5s16.333 -2.5 31 1.5l82 22v-60z" />
    <glyph glyph-name="uniFEFA" unicode="&#xfee0;&#xfe88;" horiz-adv-x="679" arabic-form="final" 
d="M175 88l-40 457h119l41 -457h-120zM20 0v134h659v-134h-659zM475 88v542h119v-542h-119zM679 0v134c7.33301 0 12.5 -6.16699 15.5 -18.5s4.5 -28.5 4.5 -48.5c0 -20.667 -1.5 -37 -4.5 -49s-8.16699 -18 -15.5 -18zM129 -372l0.00195312 57.999l40 11
c-2.66699 8 -4.83398 16.833 -6.50098 26.5s-2.5 21.5 -2.5 35.5c0 36 7.16699 64 21.5 84s34.666 34.5 60.999 43.5s56.833 14.5 91.5 16.5v-69c-16.667 -1.33301 -33 -3.66602 -49 -6.99902s-31.333 -8.33301 -46 -15v-66c0 -10.667 3 -17.5 9 -20.5s16.333 -2.5 31 1.5
l82 22v-60z" />
    <glyph glyph-name="uniFEFB" unicode="&#xfedf;&#xfe8e;" horiz-adv-x="655" arabic-form="isolated" 
d="M314 -15c-63.333 0 -112.999 5.66699 -148.999 17s-61.333 29.5 -76 54.5s-22 58.167 -22 99.5c0 32.667 3.66699 60.834 11 84.501s21 44 41 61s48.667 32.167 86 45.5l236 83v200h120v-181c0 -26.667 -1.33301 -48.334 -4 -65.001s-7.5 -29.5 -14.5 -38.5
s-17.5 -15.833 -31.5 -20.5v-7c25.333 -26 43.166 -51 53.499 -75s15.5 -51 15.5 -81c0 -62 -20.667 -107 -62 -135s-109.333 -42 -204 -42zM194.001 119h183.999c26.667 0 45.834 4.83301 57.501 14.5s17.5 21.167 17.5 34.5c0 10 -3 20 -9 30s-14.667 19.333 -26 28
l-53 42l-171 -60v-89zM278 340l-193 158l83 99l254 -208z" />
    <glyph glyph-name="uniFEFC" unicode="&#xfee0;&#xfe8e;" horiz-adv-x="679" arabic-form="final" 
d="M175 88l-40 457h119l41 -457h-120zM20 0v134h659v-134h-659zM475 88v542h119v-542h-119zM679 0v134c7.33301 0 12.5 -6.16699 15.5 -18.5s4.5 -28.5 4.5 -48.5c0 -20.667 -1.5 -37 -4.5 -49s-8.16699 -18 -15.5 -18z" />
    <glyph glyph-name="lam_alefWaslaar" unicode="&#xfedf;&#xfb51;" horiz-adv-x="655" 
d="M314 -15c-63.333 0 -112.999 5.66699 -148.999 17s-61.333 29.5 -76 54.5s-22 58.167 -22 99.5c0 32.667 3.66699 60.834 11 84.501s21 44 41 61s48.667 32.167 86 45.5l236 83v200h120v-181c0 -26.667 -1.33301 -48.334 -4 -65.001s-7.5 -29.5 -14.5 -38.5
s-17.5 -15.833 -31.5 -20.5v-7c25.333 -26 43.166 -51 53.499 -75s15.5 -51 15.5 -81c0 -62 -20.667 -107 -62 -135s-109.333 -42 -204 -42zM194.001 119h183.999c26.667 0 45.834 4.83301 57.501 14.5s17.5 21.167 17.5 34.5c0 10 -3 20 -9 30s-14.667 19.333 -26 28
l-53 42l-171 -60v-89zM278 340l-193 158l83 99l254 -208zM-34 682c0 59.333 13.832 105.5 41.499 138.5s68.834 49.5 123.501 49.5c44.667 0 77.167 -6.5 97.5 -19.5s30.5 -33.833 30.5 -62.5v-106h-89v120c-4.66699 2 -10.167 3.33301 -16.5 4s-13.833 1 -22.5 1
c-26 0 -45.167 -10.167 -57.5 -30.5s-18.5 -51.833 -18.5 -94.5h-89zM-64.001 640v58h323v-58h-323z" />
    <glyph glyph-name="lam_alefWaslaar.fina" unicode="&#xfee0;&#xfb51;" horiz-adv-x="679" 
d="M175 88l-40 457h119l41 -457h-120zM20 0v134h659v-134h-659zM475 88v542h119v-542h-119zM679 0v134c7.33301 0 12.5 -6.16699 15.5 -18.5s4.5 -28.5 4.5 -48.5c0 -20.667 -1.5 -37 -4.5 -49s-8.16699 -18 -15.5 -18zM52 707c0 59.333 13.832 105.5 41.499 138.5
s68.834 49.5 123.501 49.5c44.667 0 77.167 -6.5 97.5 -19.5s30.5 -33.833 30.5 -62.5v-106h-89v120c-4.66699 2 -10.167 3.33301 -16.5 4s-13.833 1 -22.5 1c-26 0 -45.167 -10.167 -57.5 -30.5s-18.5 -51.833 -18.5 -94.5h-89zM21.999 665v58h323v-58h-323z" />
    <glyph glyph-name="beh_yehHamzaabovear.fina" unicode="&#xfe92;&#xfe8a;" horiz-adv-x="1157" 
d="M952 0v470h120v-336h85v-134h-205zM65 -64c0 24 1.16699 48.8291 3.5 74.4961s6 50.5 11 74.5s10.833 46.333 17.5 67l116 -19c-8 -30.667 -14.833 -60.167 -20.5 -88.5s-8.5 -55.833 -8.5 -82.5c0 -23.333 0.833008 -43.5 2.5 -60.5s4.5 -33.5 8.5 -49.5h282
c48 0 86 1.33301 114 4s47.833 7.83398 59.5 15.501s17.5 18.834 17.5 33.501v154l-135 15c-45.333 5.33301 -80 15 -104 29s-40.5 34.667 -49.5 62s-13.5 62.666 -13.5 105.999c0 36.667 3 67.834 9 93.501s16.5 46.167 31.5 61.5s36 26.5 63 33.5s61.5 10.5 103.5 10.5
h379v-134h-459v-127l143 -15c40 -4 70.833 -12.833 92.5 -26.5s36.834 -33 45.501 -58s13 -56.833 13 -95.5v-75c0 -42.667 -5.5 -78.167 -16.5 -106.5s-30 -50.833 -57 -67.5s-64.667 -28.667 -113 -36s-109.5 -11 -183.5 -11c-70 0 -127.833 3 -173.5 9
s-81.334 16.833 -107.001 32.5s-44 37.834 -55 66.501s-16.5 65.334 -16.5 110.001zM1157 -0.00390625v134c7.33301 0 12.5 -6.16699 15.5 -18.5s4.5 -28.5 4.5 -48.5c0 -20.667 -1.5 -37 -4.5 -49s-8.16699 -18 -15.5 -18zM1012 -200.004
c-8.66699 0 -18.4971 4 -29.4971 12s-20.5 17.5 -28.5 28.5s-12 20.833 -12 29.5c0 9.33301 4 19.333 12 30s17.5 20 28.5 28s20.833 12 29.5 12c9.33301 0 19.166 -4 29.499 -12s19.666 -17.333 27.999 -28s12.5 -20.667 12.5 -30c0 -8 -4.16699 -17.667 -12.5 -29
s-17.833 -21 -28.5 -29s-20.334 -12 -29.001 -12zM23.0029 266.996l0.00195312 57.999l40 11c-2.66699 8 -4.83398 16.833 -6.50098 26.5s-2.5 21.5 -2.5 35.5c0 36 7.16699 64 21.5 84s34.666 34.5 60.999 43.5s56.833 14.5 91.5 16.5v-69
c-16.667 -1.33301 -33 -3.66602 -49 -6.99902s-31.333 -8.33301 -46 -15v-66c0 -10.667 3 -17.5 9 -20.5s16.333 -2.5 31 1.5l82 22v-60z" />
    <glyph glyph-name="peh_rehar.fina" unicode="&#xfb59;&#xfeae;" horiz-adv-x="654" 
d="M68 -272l-45 106.002c26 12 46.167 25 60.5 39s24.333 32.167 30 54.5s8.5 51.166 8.5 86.499v456h119v-456c0 -50.667 -5.83301 -93.834 -17.5 -129.501s-30 -66.167 -55 -91.5s-58.5 -47 -100.5 -65zM240 336.002v134h209v-134h-209zM449 0.00195312v470h119v-336h86
v-134h-205zM654 0.00195312v134c6.66699 0 11.667 -6.16699 15 -18.5s5 -28.5 5 -48.5c0 -20.667 -1.66699 -37 -5 -49s-8.33301 -18 -15 -18zM508 -386.998c-8.66699 0 -18.4971 4 -29.4971 12s-20.5 17.5 -28.5 28.5s-12 20.833 -12 29.5c0 9.33301 4 19.333 12 30
s17.5 20 28.5 28s20.833 12 29.5 12c9.33301 0 19.166 -4 29.499 -12s19.666 -17.333 27.999 -28s12.5 -20.667 12.5 -30c0 -8 -4.16699 -17.667 -12.5 -29s-17.833 -21 -28.5 -29s-20.334 -12 -29.001 -12zM425.003 -219.998c-8.66699 0 -18.4971 4 -29.4971 12
s-20.5 17.5 -28.5 28.5s-12 20.833 -12 29.5c0 9.33301 4 19.333 12 30s17.5 20 28.5 28s20.833 12 29.5 12c9.33301 0 19.166 -4 29.499 -12s19.666 -17.333 27.999 -28s12.5 -20.667 12.5 -30c0 -8 -4.16699 -17.667 -12.5 -29s-17.833 -21 -28.5 -29
s-20.334 -12 -29.001 -12zM592.006 -219.998c-8.66699 0 -18.4971 4 -29.4971 12s-20.5 17.5 -28.5 28.5s-12 20.833 -12 29.5c0 9.33301 4 19.333 12 30s17.5 20 28.5 28s20.833 12 29.5 12c9.33301 0 19.166 -4 29.499 -12s19.666 -17.333 27.999 -28
s12.5 -20.667 12.5 -30c0 -8 -4.16699 -17.667 -12.5 -29s-17.833 -21 -28.5 -29s-20.334 -12 -29.001 -12z" />
    <glyph glyph-name="peh_zainar.fina" unicode="&#xfb59;&#xfeb0;" horiz-adv-x="654" 
d="M68 -272l-45 106.002c26 12 46.167 25 60.5 39s24.333 32.167 30 54.5s8.5 51.166 8.5 86.499v456h119v-456c0 -50.667 -5.83301 -93.834 -17.5 -129.501s-30 -66.167 -55 -91.5s-58.5 -47 -100.5 -65zM240 336.002v134h209v-134h-209zM449 0.00195312v470h119v-336h86
v-134h-205zM654 0.00195312v134c6.66699 0 11.667 -6.16699 15 -18.5s5 -28.5 5 -48.5c0 -20.667 -1.66699 -37 -5 -49s-8.33301 -18 -15 -18zM508 -386.998c-8.66699 0 -18.4971 4 -29.4971 12s-20.5 17.5 -28.5 28.5s-12 20.833 -12 29.5c0 9.33301 4 19.333 12 30
s17.5 20 28.5 28s20.833 12 29.5 12c9.33301 0 19.166 -4 29.499 -12s19.666 -17.333 27.999 -28s12.5 -20.667 12.5 -30c0 -8 -4.16699 -17.667 -12.5 -29s-17.833 -21 -28.5 -29s-20.334 -12 -29.001 -12zM425.003 -219.998c-8.66699 0 -18.4971 4 -29.4971 12
s-20.5 17.5 -28.5 28.5s-12 20.833 -12 29.5c0 9.33301 4 19.333 12 30s17.5 20 28.5 28s20.833 12 29.5 12c9.33301 0 19.166 -4 29.499 -12s19.666 -17.333 27.999 -28s12.5 -20.667 12.5 -30c0 -8 -4.16699 -17.667 -12.5 -29s-17.833 -21 -28.5 -29
s-20.334 -12 -29.001 -12zM592.006 -219.998c-8.66699 0 -18.4971 4 -29.4971 12s-20.5 17.5 -28.5 28.5s-12 20.833 -12 29.5c0 9.33301 4 19.333 12 30s17.5 20 28.5 28s20.833 12 29.5 12c9.33301 0 19.166 -4 29.499 -12s19.666 -17.333 27.999 -28
s12.5 -20.667 12.5 -30c0 -8 -4.16699 -17.667 -12.5 -29s-17.833 -21 -28.5 -29s-20.334 -12 -29.001 -12zM181.009 587.002c-8.66699 0 -18.4971 4 -29.4971 12s-20.5 17.5 -28.5 28.5s-12 20.833 -12 29.5c0 9.33301 4 19.333 12 30s17.5 20 28.5 28s20.833 12 29.5 12
c9.33301 0 19.166 -4 29.499 -12s19.666 -17.333 27.999 -28s12.5 -20.667 12.5 -30c0 -8 -4.16699 -17.667 -12.5 -29s-17.833 -21 -28.5 -29s-20.334 -12 -29.001 -12z" />
    <glyph glyph-name="peh_noonar.fina" unicode="&#xfb59;&#xfee6;" horiz-adv-x="1000" 
d="M796 0v470h119v-336h85v-134h-204zM587 336v134h209v-134h-209zM317 -240c-51.333 0 -93.501 3.50098 -126.501 10.501s-58.667 19.167 -77 36.5s-31 41.333 -38 72s-10.5 69.667 -10.5 117c0 28 1.16699 56.333 3.5 85s6 56.667 11 84s10.833 53 17.5 77l112 -18
c-8 -36.667 -14.167 -72 -18.5 -106s-6.5 -66.667 -6.5 -98c0 -26.667 0.833008 -49.834 2.5 -69.501s4.5 -38.167 8.5 -55.5h157c40.667 0 70.167 3.5 88.5 10.5s27.5 21.167 27.5 42.5v522h119v-484c0 -44.667 -3.5 -81.667 -10.5 -111s-20 -52.5 -39 -69.5
s-46.167 -28.833 -81.5 -35.5s-81.666 -10 -138.999 -10zM327.999 595.001c-8.66699 0 -18.332 4 -28.999 12s-20.167 17.5 -28.5 28.5s-12.5 20.833 -12.5 29.5c0 9.33301 4 19.333 12 30s17.5 20 28.5 28s20.833 12 29.5 12c9.33301 0 19.333 -4 30 -12s20 -17.333 28 -28
s12 -20.667 12 -30c0 -8 -4.16699 -17.667 -12.5 -29s-17.833 -21 -28.5 -29s-20.334 -12 -29.001 -12zM1000 0.000976562v134c7.33301 0 12.5 -6.16699 15.5 -18.5s4.5 -28.5 4.5 -48.5c0 -20.667 -1.5 -37 -4.5 -49s-8.16699 -18 -15.5 -18zM856.001 -386.999
c-8.66699 0 -18.4971 4 -29.4971 12s-20.5 17.5 -28.5 28.5s-12 20.833 -12 29.5c0 9.33301 4 19.333 12 30s17.5 20 28.5 28s20.833 12 29.5 12c9.33301 0 19.166 -4 29.499 -12s19.666 -17.333 27.999 -28s12.5 -20.667 12.5 -30c0 -8 -4.16699 -17.667 -12.5 -29
s-17.833 -21 -28.5 -29s-20.334 -12 -29.001 -12zM773.004 -219.999c-8.66699 0 -18.4971 4 -29.4971 12s-20.5 17.5 -28.5 28.5s-12 20.833 -12 29.5c0 9.33301 4 19.333 12 30s17.5 20 28.5 28s20.833 12 29.5 12c9.33301 0 19.166 -4 29.499 -12
s19.666 -17.333 27.999 -28s12.5 -20.667 12.5 -30c0 -8 -4.16699 -17.667 -12.5 -29s-17.833 -21 -28.5 -29s-20.334 -12 -29.001 -12zM940.007 -219.999c-8.66699 0 -18.4971 4 -29.4971 12s-20.5 17.5 -28.5 28.5s-12 20.833 -12 29.5c0 9.33301 4 19.333 12 30
s17.5 20 28.5 28s20.833 12 29.5 12c9.33301 0 19.166 -4 29.499 -12s19.666 -17.333 27.999 -28s12.5 -20.667 12.5 -30c0 -8 -4.16699 -17.667 -12.5 -29s-17.833 -21 -28.5 -29s-20.334 -12 -29.001 -12z" />
    <glyph glyph-name="peh_alefMaksuraar.fina" unicode="&#xfb59;&#xfef0;" horiz-adv-x="1157" 
d="M952 0v470h120v-336h85v-134h-205zM65 -64c0 24 1.16699 48.8291 3.5 74.4961s6 50.5 11 74.5s10.833 46.333 17.5 67l116 -19c-8 -30.667 -14.833 -60.167 -20.5 -88.5s-8.5 -55.833 -8.5 -82.5c0 -23.333 0.833008 -43.5 2.5 -60.5s4.5 -33.5 8.5 -49.5h282
c48 0 86 1.33301 114 4s47.833 7.83398 59.5 15.501s17.5 18.834 17.5 33.501v154l-135 15c-45.333 5.33301 -80 15 -104 29s-40.5 34.667 -49.5 62s-13.5 62.666 -13.5 105.999c0 36.667 3 67.834 9 93.501s16.5 46.167 31.5 61.5s36 26.5 63 33.5s61.5 10.5 103.5 10.5
h379v-134h-459v-127l143 -15c40 -4 70.833 -12.833 92.5 -26.5s36.834 -33 45.501 -58s13 -56.833 13 -95.5v-75c0 -42.667 -5.5 -78.167 -16.5 -106.5s-30 -50.833 -57 -67.5s-64.667 -28.667 -113 -36s-109.5 -11 -183.5 -11c-70 0 -127.833 3 -173.5 9
s-81.334 16.833 -107.001 32.5s-44 37.834 -55 66.501s-16.5 65.334 -16.5 110.001zM1157 -0.00390625v134c7.33301 0 12.5 -6.16699 15.5 -18.5s4.5 -28.5 4.5 -48.5c0 -20.667 -1.5 -37 -4.5 -49s-8.16699 -18 -15.5 -18zM1012 -367.004
c-8.66699 0 -18.4971 4 -29.4971 12s-20.5 17.5 -28.5 28.5s-12 20.833 -12 29.5c0 9.33301 4 19.333 12 30s17.5 20 28.5 28s20.833 12 29.5 12c9.33301 0 19.166 -4 29.499 -12s19.666 -17.333 27.999 -28s12.5 -20.667 12.5 -30c0 -8 -4.16699 -17.667 -12.5 -29
s-17.833 -21 -28.5 -29s-20.334 -12 -29.001 -12zM929.003 -200.004c-8.66699 0 -18.4971 4 -29.4971 12s-20.5 17.5 -28.5 28.5s-12 20.833 -12 29.5c0 9.33301 4 19.333 12 30s17.5 20 28.5 28s20.833 12 29.5 12c9.33301 0 19.166 -4 29.499 -12
s19.666 -17.333 27.999 -28s12.5 -20.667 12.5 -30c0 -8 -4.16699 -17.667 -12.5 -29s-17.833 -21 -28.5 -29s-20.334 -12 -29.001 -12zM1096.01 -200.004c-8.66699 0 -18.4971 4 -29.4971 12s-20.5 17.5 -28.5 28.5s-12 20.833 -12 29.5c0 9.33301 4 19.333 12 30
s17.5 20 28.5 28s20.833 12 29.5 12c9.33301 0 19.166 -4 29.499 -12s19.666 -17.333 27.999 -28s12.5 -20.667 12.5 -30c0 -8 -4.16699 -17.667 -12.5 -29s-17.833 -21 -28.5 -29s-20.334 -12 -29.001 -12z" />
    <glyph glyph-name="peh_yehar.fina" unicode="&#xfb59;&#xfef2;" horiz-adv-x="1157" 
d="M952 0v470h120v-336h85v-134h-205zM65 -64c0 24 1.16699 48.8291 3.5 74.4961s6 50.5 11 74.5s10.833 46.333 17.5 67l116 -19c-8 -30.667 -14.833 -60.167 -20.5 -88.5s-8.5 -55.833 -8.5 -82.5c0 -23.333 0.833008 -43.5 2.5 -60.5s4.5 -33.5 8.5 -49.5h282
c48 0 86 1.33301 114 4s47.833 7.83398 59.5 15.501s17.5 18.834 17.5 33.501v154l-135 15c-45.333 5.33301 -80 15 -104 29s-40.5 34.667 -49.5 62s-13.5 62.666 -13.5 105.999c0 36.667 3 67.834 9 93.501s16.5 46.167 31.5 61.5s36 26.5 63 33.5s61.5 10.5 103.5 10.5
h379v-134h-459v-127l143 -15c40 -4 70.833 -12.833 92.5 -26.5s36.834 -33 45.501 -58s13 -56.833 13 -95.5v-75c0 -42.667 -5.5 -78.167 -16.5 -106.5s-30 -50.833 -57 -67.5s-64.667 -28.667 -113 -36s-109.5 -11 -183.5 -11c-70 0 -127.833 3 -173.5 9
s-81.334 16.833 -107.001 32.5s-44 37.834 -55 66.501s-16.5 65.334 -16.5 110.001zM1157 -0.00390625v134c7.33301 0 12.5 -6.16699 15.5 -18.5s4.5 -28.5 4.5 -48.5c0 -20.667 -1.5 -37 -4.5 -49s-8.16699 -18 -15.5 -18zM1012 -367.004
c-8.66699 0 -18.4971 4 -29.4971 12s-20.5 17.5 -28.5 28.5s-12 20.833 -12 29.5c0 9.33301 4 19.333 12 30s17.5 20 28.5 28s20.833 12 29.5 12c9.33301 0 19.166 -4 29.499 -12s19.666 -17.333 27.999 -28s12.5 -20.667 12.5 -30c0 -8 -4.16699 -17.667 -12.5 -29
s-17.833 -21 -28.5 -29s-20.334 -12 -29.001 -12zM929.003 -200.004c-8.66699 0 -18.4971 4 -29.4971 12s-20.5 17.5 -28.5 28.5s-12 20.833 -12 29.5c0 9.33301 4 19.333 12 30s17.5 20 28.5 28s20.833 12 29.5 12c9.33301 0 19.166 -4 29.499 -12
s19.666 -17.333 27.999 -28s12.5 -20.667 12.5 -30c0 -8 -4.16699 -17.667 -12.5 -29s-17.833 -21 -28.5 -29s-20.334 -12 -29.001 -12zM1096.01 -200.004c-8.66699 0 -18.4971 4 -29.4971 12s-20.5 17.5 -28.5 28.5s-12 20.833 -12 29.5c0 9.33301 4 19.333 12 30
s17.5 20 28.5 28s20.833 12 29.5 12c9.33301 0 19.166 -4 29.499 -12s19.666 -17.333 27.999 -28s12.5 -20.667 12.5 -30c0 -8 -4.16699 -17.667 -12.5 -29s-17.833 -21 -28.5 -29s-20.334 -12 -29.001 -12zM351.009 -470.004c-8.66699 0 -18.4971 4 -29.4971 12
s-20.5 17.5 -28.5 28.5s-12 20.833 -12 29.5c0 9.33301 4 19.333 12 30s17.5 20 28.5 28s20.833 12 29.5 12c9.33301 0 19.166 -4 29.499 -12s19.666 -17.333 27.999 -28s12.5 -20.667 12.5 -30c0 -8 -4.16699 -17.667 -12.5 -29s-17.833 -21 -28.5 -29
s-20.334 -12 -29.001 -12zM518.012 -470.004c-8.66699 0 -18.4971 4 -29.4971 12s-20.5 17.5 -28.5 28.5s-12 20.833 -12 29.5c0 9.33301 4 19.333 12 30s17.5 20 28.5 28s20.833 12 29.5 12c9.33301 0 19.166 -4 29.499 -12s19.666 -17.333 27.999 -28
s12.5 -20.667 12.5 -30c0 -8 -4.16699 -17.667 -12.5 -29s-17.833 -21 -28.5 -29s-20.334 -12 -29.001 -12z" />
    <glyph glyph-name="peh_yehHamzaabovear.fina" unicode="&#xfb59;&#xfe8a;" horiz-adv-x="1157" 
d="M952 0v470h120v-336h85v-134h-205zM65 -64c0 24 1.16699 48.8291 3.5 74.4961s6 50.5 11 74.5s10.833 46.333 17.5 67l116 -19c-8 -30.667 -14.833 -60.167 -20.5 -88.5s-8.5 -55.833 -8.5 -82.5c0 -23.333 0.833008 -43.5 2.5 -60.5s4.5 -33.5 8.5 -49.5h282
c48 0 86 1.33301 114 4s47.833 7.83398 59.5 15.501s17.5 18.834 17.5 33.501v154l-135 15c-45.333 5.33301 -80 15 -104 29s-40.5 34.667 -49.5 62s-13.5 62.666 -13.5 105.999c0 36.667 3 67.834 9 93.501s16.5 46.167 31.5 61.5s36 26.5 63 33.5s61.5 10.5 103.5 10.5
h379v-134h-459v-127l143 -15c40 -4 70.833 -12.833 92.5 -26.5s36.834 -33 45.501 -58s13 -56.833 13 -95.5v-75c0 -42.667 -5.5 -78.167 -16.5 -106.5s-30 -50.833 -57 -67.5s-64.667 -28.667 -113 -36s-109.5 -11 -183.5 -11c-70 0 -127.833 3 -173.5 9
s-81.334 16.833 -107.001 32.5s-44 37.834 -55 66.501s-16.5 65.334 -16.5 110.001zM1157 -0.00390625v134c7.33301 0 12.5 -6.16699 15.5 -18.5s4.5 -28.5 4.5 -48.5c0 -20.667 -1.5 -37 -4.5 -49s-8.16699 -18 -15.5 -18zM1012 -367.004
c-8.66699 0 -18.4971 4 -29.4971 12s-20.5 17.5 -28.5 28.5s-12 20.833 -12 29.5c0 9.33301 4 19.333 12 30s17.5 20 28.5 28s20.833 12 29.5 12c9.33301 0 19.166 -4 29.499 -12s19.666 -17.333 27.999 -28s12.5 -20.667 12.5 -30c0 -8 -4.16699 -17.667 -12.5 -29
s-17.833 -21 -28.5 -29s-20.334 -12 -29.001 -12zM929.003 -200.004c-8.66699 0 -18.4971 4 -29.4971 12s-20.5 17.5 -28.5 28.5s-12 20.833 -12 29.5c0 9.33301 4 19.333 12 30s17.5 20 28.5 28s20.833 12 29.5 12c9.33301 0 19.166 -4 29.499 -12
s19.666 -17.333 27.999 -28s12.5 -20.667 12.5 -30c0 -8 -4.16699 -17.667 -12.5 -29s-17.833 -21 -28.5 -29s-20.334 -12 -29.001 -12zM1096.01 -200.004c-8.66699 0 -18.4971 4 -29.4971 12s-20.5 17.5 -28.5 28.5s-12 20.833 -12 29.5c0 9.33301 4 19.333 12 30
s17.5 20 28.5 28s20.833 12 29.5 12c9.33301 0 19.166 -4 29.499 -12s19.666 -17.333 27.999 -28s12.5 -20.667 12.5 -30c0 -8 -4.16699 -17.667 -12.5 -29s-17.833 -21 -28.5 -29s-20.334 -12 -29.001 -12zM13.0088 266.996l0.00195312 57.999l40 11
c-2.66699 8 -4.83398 16.833 -6.50098 26.5s-2.5 21.5 -2.5 35.5c0 36 7.16699 64 21.5 84s34.666 34.5 60.999 43.5s56.833 14.5 91.5 16.5v-69c-16.667 -1.33301 -33 -3.66602 -49 -6.99902s-31.333 -8.33301 -46 -15v-66c0 -10.667 3 -17.5 9 -20.5s16.333 -2.5 31 1.5
l82 22v-60z" />
    <glyph glyph-name="teh_yehHamzaabovear.fina" unicode="&#xfe98;&#xfe8a;" horiz-adv-x="1157" 
d="M952 0v470h120v-336h85v-134h-205zM65 -64c0 24 1.16699 48.8291 3.5 74.4961s6 50.5 11 74.5s10.833 46.333 17.5 67l116 -19c-8 -30.667 -14.833 -60.167 -20.5 -88.5s-8.5 -55.833 -8.5 -82.5c0 -23.333 0.833008 -43.5 2.5 -60.5s4.5 -33.5 8.5 -49.5h282
c48 0 86 1.33301 114 4s47.833 7.83398 59.5 15.501s17.5 18.834 17.5 33.501v154l-135 15c-45.333 5.33301 -80 15 -104 29s-40.5 34.667 -49.5 62s-13.5 62.666 -13.5 105.999c0 36.667 3 67.834 9 93.501s16.5 46.167 31.5 61.5s36 26.5 63 33.5s61.5 10.5 103.5 10.5
h379v-134h-459v-127l143 -15c40 -4 70.833 -12.833 92.5 -26.5s36.834 -33 45.501 -58s13 -56.833 13 -95.5v-75c0 -42.667 -5.5 -78.167 -16.5 -106.5s-30 -50.833 -57 -67.5s-64.667 -28.667 -113 -36s-109.5 -11 -183.5 -11c-70 0 -127.833 3 -173.5 9
s-81.334 16.833 -107.001 32.5s-44 37.834 -55 66.501s-16.5 65.334 -16.5 110.001zM1157 -0.00390625v134c7.33301 0 12.5 -6.16699 15.5 -18.5s4.5 -28.5 4.5 -48.5c0 -20.667 -1.5 -37 -4.5 -49s-8.16699 -18 -15.5 -18zM929 586.996c-8.66699 0 -18.4971 4 -29.4971 12
s-20.5 17.5 -28.5 28.5s-12 20.833 -12 29.5c0 9.33301 4 19.333 12 30s17.5 20 28.5 28s20.833 12 29.5 12c9.33301 0 19.166 -4 29.499 -12s19.666 -17.333 27.999 -28s12.5 -20.667 12.5 -30c0 -8 -4.16699 -17.667 -12.5 -29s-17.833 -21 -28.5 -29
s-20.334 -12 -29.001 -12zM1096 586.996c-8.66699 0 -18.4971 4 -29.4971 12s-20.5 17.5 -28.5 28.5s-12 20.833 -12 29.5c0 9.33301 4 19.333 12 30s17.5 20 28.5 28s20.833 12 29.5 12c9.33301 0 19.166 -4 29.499 -12s19.666 -17.333 27.999 -28s12.5 -20.667 12.5 -30
c0 -8 -4.16699 -17.667 -12.5 -29s-17.833 -21 -28.5 -29s-20.334 -12 -29.001 -12zM23.0059 266.996l0.00195312 57.999l40 11c-2.66699 8 -4.83398 16.833 -6.50098 26.5s-2.5 21.5 -2.5 35.5c0 36 7.16699 64 21.5 84s34.666 34.5 60.999 43.5s56.833 14.5 91.5 16.5v-69
c-16.667 -1.33301 -33 -3.66602 -49 -6.99902s-31.333 -8.33301 -46 -15v-66c0 -10.667 3 -17.5 9 -20.5s16.333 -2.5 31 1.5l82 22v-60z" />
    <glyph glyph-name="theh_yehHamzaabovear.fina" unicode="&#xfe9c;&#xfe8a;" horiz-adv-x="1157" 
d="M952 0v470h120v-336h85v-134h-205zM65 -64c0 24 1.16699 48.8291 3.5 74.4961s6 50.5 11 74.5s10.833 46.333 17.5 67l116 -19c-8 -30.667 -14.833 -60.167 -20.5 -88.5s-8.5 -55.833 -8.5 -82.5c0 -23.333 0.833008 -43.5 2.5 -60.5s4.5 -33.5 8.5 -49.5h282
c48 0 86 1.33301 114 4s47.833 7.83398 59.5 15.501s17.5 18.834 17.5 33.501v154l-135 15c-45.333 5.33301 -80 15 -104 29s-40.5 34.667 -49.5 62s-13.5 62.666 -13.5 105.999c0 36.667 3 67.834 9 93.501s16.5 46.167 31.5 61.5s36 26.5 63 33.5s61.5 10.5 103.5 10.5
h379v-134h-459v-127l143 -15c40 -4 70.833 -12.833 92.5 -26.5s36.834 -33 45.501 -58s13 -56.833 13 -95.5v-75c0 -42.667 -5.5 -78.167 -16.5 -106.5s-30 -50.833 -57 -67.5s-64.667 -28.667 -113 -36s-109.5 -11 -183.5 -11c-70 0 -127.833 3 -173.5 9
s-81.334 16.833 -107.001 32.5s-44 37.834 -55 66.501s-16.5 65.334 -16.5 110.001zM1157 -0.00390625v134c7.33301 0 12.5 -6.16699 15.5 -18.5s4.5 -28.5 4.5 -48.5c0 -20.667 -1.5 -37 -4.5 -49s-8.16699 -18 -15.5 -18zM929 586.996c-8.66699 0 -18.4971 4 -29.4971 12
s-20.5 17.5 -28.5 28.5s-12 20.833 -12 29.5c0 9.33301 4 19.333 12 30s17.5 20 28.5 28s20.833 12 29.5 12c9.33301 0 19.166 -4 29.499 -12s19.666 -17.333 27.999 -28s12.5 -20.667 12.5 -30c0 -8 -4.16699 -17.667 -12.5 -29s-17.833 -21 -28.5 -29
s-20.334 -12 -29.001 -12zM1096 586.996c-8.66699 0 -18.4971 4 -29.4971 12s-20.5 17.5 -28.5 28.5s-12 20.833 -12 29.5c0 9.33301 4 19.333 12 30s17.5 20 28.5 28s20.833 12 29.5 12c9.33301 0 19.166 -4 29.499 -12s19.666 -17.333 27.999 -28s12.5 -20.667 12.5 -30
c0 -8 -4.16699 -17.667 -12.5 -29s-17.833 -21 -28.5 -29s-20.334 -12 -29.001 -12zM1012.01 763.996c-8.66699 0 -18.4971 4 -29.4971 12s-20.5 17.5 -28.5 28.5s-12 20.833 -12 29.5c0 9.33301 4 19.333 12 30s17.5 20 28.5 28s20.833 12 29.5 12
c9.33301 0 19.166 -4 29.499 -12s19.666 -17.333 27.999 -28s12.5 -20.667 12.5 -30c0 -8 -4.16699 -17.667 -12.5 -29s-17.833 -21 -28.5 -29s-20.334 -12 -29.001 -12zM23.0088 266.996l0.00195312 57.999l40 11c-2.66699 8 -4.83398 16.833 -6.50098 26.5
s-2.5 21.5 -2.5 35.5c0 36 7.16699 64 21.5 84s34.666 34.5 60.999 43.5s56.833 14.5 91.5 16.5v-69c-16.667 -1.33301 -33 -3.66602 -49 -6.99902s-31.333 -8.33301 -46 -15v-66c0 -10.667 3 -17.5 9 -20.5s16.333 -2.5 31 1.5l82 22v-60z" />
    <glyph glyph-name="seen_zainar" unicode="&#xfeb3;&#xfeb0;" horiz-adv-x="1302" 
d="M1002 0c-46.667 0 -84.665 3.33008 -113.998 9.99707s-52 18.167 -68 34.5s-27.167 39 -33.5 68s-9.5 65.833 -9.5 110.5v157h120v-193c0 -21.333 6.16699 -35.5 18.5 -42.5s31.166 -10.5 56.499 -10.5h123c4 16.667 6.66699 34.834 8 54.501s2 42.5 2 68.5
c0 30.667 -2.5 62.167 -7.5 94.5s-11.5 65.5 -19.5 99.5l118 18c6 -19.333 11.167 -40.666 15.5 -63.999s7.66602 -47.333 9.99902 -72s3.5 -48 3.5 -70c0 -68 -7.5 -121.167 -22.5 -159.5s-38.833 -65.166 -71.5 -80.499s-75.667 -23 -129 -23zM68.002 -272.003
l-45 106.002c26 12 46.167 25 60.5 39s24.333 32.167 30 54.5s8.5 51.166 8.5 86.499v456h119v-456c0 -50.667 -5.83301 -93.834 -17.5 -129.501s-30 -66.167 -55 -91.5s-58.5 -47 -100.5 -65zM240.002 335.999v134h209v-134h-209zM449.002 -0.000976562v470h119v-470h-119z
M568.002 -0.000976562l0.00195312 134h133c26 0 45.167 3.5 57.5 10.5s18.5 21.167 18.5 42.5v193h120v-157c0 -44.667 -3.16699 -81.5 -9.5 -110.5s-17.833 -51.667 -34.5 -68s-40.834 -27.833 -72.501 -34.5s-72.834 -10 -123.501 -10h-89zM181.004 586.999
c-8.66699 0 -18.4971 4 -29.4971 12s-20.5 17.5 -28.5 28.5s-12 20.833 -12 29.5c0 9.33301 4 19.333 12 30s17.5 20 28.5 28s20.833 12 29.5 12c9.33301 0 19.166 -4 29.499 -12s19.666 -17.333 27.999 -28s12.5 -20.667 12.5 -30c0 -8 -4.16699 -17.667 -12.5 -29
s-17.833 -21 -28.5 -29s-20.334 -12 -29.001 -12z" />
    <glyph glyph-name="seen_zainar.fina" unicode="&#xfeb4;&#xfeb0;" horiz-adv-x="1310" 
d="M1002 0l145 134h163v-134h-308zM1002 0c-46.667 0 -84.665 3.33008 -113.998 9.99707s-52 18.167 -68 34.5s-27.167 39 -33.5 68s-9.5 65.833 -9.5 110.5v157h120v-193c0 -21.333 6.16699 -35.5 18.5 -42.5s31.166 -10.5 56.499 -10.5h123
c4 16.667 6.66699 34.834 8 54.501s2 42.5 2 68.5c0 30.667 -2.5 62.167 -7.5 94.5s-11.5 65.5 -19.5 99.5l118 18c6 -19.333 11.167 -40.666 15.5 -63.999s7.66602 -47.333 9.99902 -72s3.5 -48 3.5 -70c0 -68 -7.5 -121.167 -22.5 -159.5s-38.833 -65.166 -71.5 -80.499
s-75.667 -23 -129 -23zM68.002 -272.003l-45 106.002c26 12 46.167 25 60.5 39s24.333 32.167 30 54.5s8.5 51.166 8.5 86.499v456h119v-456c0 -50.667 -5.83301 -93.834 -17.5 -129.501s-30 -66.167 -55 -91.5s-58.5 -47 -100.5 -65zM240.002 335.999v134h209v-134h-209z
M449.002 -0.000976562v470h119v-470h-119zM568.002 -0.000976562l0.00195312 134h133c26 0 45.167 3.5 57.5 10.5s18.5 21.167 18.5 42.5v193h120v-157c0 -44.667 -3.16699 -81.5 -9.5 -110.5s-17.833 -51.667 -34.5 -68s-40.834 -27.833 -72.501 -34.5
s-72.834 -10 -123.501 -10h-89zM1310 -0.000976562v134c6.66699 0 11.667 -6.16699 15 -18.5s5 -28.5 5 -48.5c0 -20.667 -1.66699 -37 -5 -49s-8.33301 -18 -15 -18zM181.004 586.999c-8.66699 0 -18.4971 4 -29.4971 12s-20.5 17.5 -28.5 28.5s-12 20.833 -12 29.5
c0 9.33301 4 19.333 12 30s17.5 20 28.5 28s20.833 12 29.5 12c9.33301 0 19.166 -4 29.499 -12s19.666 -17.333 27.999 -28s12.5 -20.667 12.5 -30c0 -8 -4.16699 -17.667 -12.5 -29s-17.833 -21 -28.5 -29s-20.334 -12 -29.001 -12z" />
    <glyph glyph-name="seen_yehHamzaabovear" unicode="&#xfeb3;&#xfe8a;" horiz-adv-x="1805" 
d="M417 -282c-70 0 -127.833 2.99609 -173.5 8.99609s-81.334 16.833 -107.001 32.5s-44 37.834 -55 66.501s-16.5 65.334 -16.5 110.001c0 24 1.16699 48.833 3.5 74.5s6 50.5 11 74.5s10.833 46.333 17.5 67l116 -19c-8 -30.667 -14.833 -60.167 -20.5 -88.5
s-8.5 -55.833 -8.5 -82.5c0 -23.333 0.833008 -43.5 2.5 -60.5s4.5 -33.5 8.5 -49.5h282c48 0 86 1.33301 114 4s47.833 7.83398 59.5 15.501s17.5 18.834 17.5 33.501v154l-135 15c-45.333 5.33301 -80 15 -104 29s-40.5 34.667 -49.5 62s-13.5 62.666 -13.5 105.999
c0 36.667 3 67.834 9 93.501s16.5 46.167 31.5 61.5s36 26.5 63 33.5s61.5 10.5 103.5 10.5h379v-134h-459v-127l143 -15c40 -4 70.833 -12.833 92.5 -26.5s36.834 -33 45.501 -58s13 -56.833 13 -95.5v-75c0 -42.667 -5.5 -78.167 -16.5 -106.5s-30 -50.833 -57 -67.5
s-64.667 -28.667 -113 -36s-109.5 -11 -183.5 -11zM952 -0.00390625v470h120v-470h-120zM1072 -0.00390625l0.00292969 134h133c25.333 0 44.166 3.5 56.499 10.5s18.5 21.167 18.5 42.5v193h120v-157c0 -44.667 -3.16699 -81.5 -9.5 -110.5s-17.833 -51.667 -34.5 -68
s-40.834 -27.833 -72.501 -34.5s-72.834 -10 -123.501 -10h-88zM1505 -0.00390625c-46.667 0 -84.667 3.33008 -114 9.99707s-52 18.167 -68 34.5s-27.167 39 -33.5 68s-9.5 65.833 -9.5 110.5v157h120v-193c0 -21.333 6.16699 -35.5 18.5 -42.5s31.5 -10.5 57.5 -10.5h122
c4 16.667 6.66699 34.834 8 54.501s2 42.5 2 68.5c0 30.667 -2.5 62.167 -7.5 94.5s-11.5 65.5 -19.5 99.5l118 18c6.66699 -19.333 12 -40.666 16 -63.999s7.16699 -47.333 9.5 -72s3.5 -48 3.5 -70c0 -68 -7.5 -121.167 -22.5 -159.5s-38.833 -65.166 -71.5 -80.499
s-75.667 -23 -129 -23zM62.0029 266.993l0.00195312 57.999l40 11c-2.66699 8 -4.83398 16.833 -6.50098 26.5s-2.5 21.5 -2.5 35.5c0 36 7.16699 64 21.5 84s34.666 34.5 60.999 43.5s56.833 14.5 91.5 16.5v-69c-16.667 -1.33301 -33 -3.66602 -49 -6.99902
s-31.333 -8.33301 -46 -15v-66c0 -10.667 3 -17.5 9 -20.5s16.333 -2.5 31 1.5l82 22v-60z" />
    <glyph glyph-name="seen_yehHamzaabovear.fina" unicode="&#xfeb4;&#xfe8a;" horiz-adv-x="1813" 
d="M1505 0l145 134h163v-134h-308zM417 -282c-70 0 -127.833 2.99609 -173.5 8.99609s-81.334 16.833 -107.001 32.5s-44 37.834 -55 66.501s-16.5 65.334 -16.5 110.001c0 24 1.16699 48.833 3.5 74.5s6 50.5 11 74.5s10.833 46.333 17.5 67l116 -19
c-8 -30.667 -14.833 -60.167 -20.5 -88.5s-8.5 -55.833 -8.5 -82.5c0 -23.333 0.833008 -43.5 2.5 -60.5s4.5 -33.5 8.5 -49.5h282c48 0 86 1.33301 114 4s47.833 7.83398 59.5 15.501s17.5 18.834 17.5 33.501v154l-135 15c-45.333 5.33301 -80 15 -104 29
s-40.5 34.667 -49.5 62s-13.5 62.666 -13.5 105.999c0 36.667 3 67.834 9 93.501s16.5 46.167 31.5 61.5s36 26.5 63 33.5s61.5 10.5 103.5 10.5h379v-134h-459v-127l143 -15c40 -4 70.833 -12.833 92.5 -26.5s36.834 -33 45.501 -58s13 -56.833 13 -95.5v-75
c0 -42.667 -5.5 -78.167 -16.5 -106.5s-30 -50.833 -57 -67.5s-64.667 -28.667 -113 -36s-109.5 -11 -183.5 -11zM952 -0.00390625v470h120v-470h-120zM1072 -0.00390625l0.00292969 134h133c25.333 0 44.166 3.5 56.499 10.5s18.5 21.167 18.5 42.5v193h120v-157
c0 -44.667 -3.16699 -81.5 -9.5 -110.5s-17.833 -51.667 -34.5 -68s-40.834 -27.833 -72.501 -34.5s-72.834 -10 -123.501 -10h-88zM1505 -0.00390625c-46.667 0 -84.667 3.33008 -114 9.99707s-52 18.167 -68 34.5s-27.167 39 -33.5 68s-9.5 65.833 -9.5 110.5v157h120
v-193c0 -21.333 6.16699 -35.5 18.5 -42.5s31.5 -10.5 57.5 -10.5h122c4 16.667 6.66699 34.834 8 54.501s2 42.5 2 68.5c0 30.667 -2.5 62.167 -7.5 94.5s-11.5 65.5 -19.5 99.5l118 18c6.66699 -19.333 12 -40.666 16 -63.999s7.16699 -47.333 9.5 -72s3.5 -48 3.5 -70
c0 -68 -7.5 -121.167 -22.5 -159.5s-38.833 -65.166 -71.5 -80.499s-75.667 -23 -129 -23zM1813 -0.00683594v134c7.33301 0 12.5 -6.16699 15.5 -18.5s4.5 -28.5 4.5 -48.5c0 -20.667 -1.5 -37 -4.5 -49s-8.16699 -18 -15.5 -18zM62.0029 266.993l0.00195312 57.999l40 11
c-2.66699 8 -4.83398 16.833 -6.50098 26.5s-2.5 21.5 -2.5 35.5c0 36 7.16699 64 21.5 84s34.666 34.5 60.999 43.5s56.833 14.5 91.5 16.5v-69c-16.667 -1.33301 -33 -3.66602 -49 -6.99902s-31.333 -8.33301 -46 -15v-66c0 -10.667 3 -17.5 9 -20.5s16.333 -2.5 31 1.5
l82 22v-60z" />
    <glyph glyph-name="sheen_zainar" unicode="&#xfeb7;&#xfeb0;" horiz-adv-x="1302" 
d="M1002 0c-46.667 0 -84.665 3.33008 -113.998 9.99707s-52 18.167 -68 34.5s-27.167 39 -33.5 68s-9.5 65.833 -9.5 110.5v157h120v-193c0 -21.333 6.16699 -35.5 18.5 -42.5s31.166 -10.5 56.499 -10.5h123c4 16.667 6.66699 34.834 8 54.501s2 42.5 2 68.5
c0 30.667 -2.5 62.167 -7.5 94.5s-11.5 65.5 -19.5 99.5l118 18c6 -19.333 11.167 -40.666 15.5 -63.999s7.66602 -47.333 9.99902 -72s3.5 -48 3.5 -70c0 -68 -7.5 -121.167 -22.5 -159.5s-38.833 -65.166 -71.5 -80.499s-75.667 -23 -129 -23zM68.002 -272.003
l-45 106.002c26 12 46.167 25 60.5 39s24.333 32.167 30 54.5s8.5 51.166 8.5 86.499v456h119v-456c0 -50.667 -5.83301 -93.834 -17.5 -129.501s-30 -66.167 -55 -91.5s-58.5 -47 -100.5 -65zM240.002 335.999v134h209v-134h-209zM449.002 -0.000976562v470h119v-470h-119z
M568.002 -0.000976562l0.00195312 134h133c26 0 45.167 3.5 57.5 10.5s18.5 21.167 18.5 42.5v193h120v-157c0 -44.667 -3.16699 -81.5 -9.5 -110.5s-17.833 -51.667 -34.5 -68s-40.834 -27.833 -72.501 -34.5s-72.834 -10 -123.501 -10h-89zM754.004 586.999
c-8.66699 0 -18.4971 4 -29.4971 12s-20.5 17.5 -28.5 28.5s-12 20.833 -12 29.5c0 9.33301 4 19.333 12 30s17.5 20 28.5 28s20.833 12 29.5 12c9.33301 0 19.166 -4 29.499 -12s19.666 -17.333 27.999 -28s12.5 -20.667 12.5 -30c0 -8 -4.16699 -17.667 -12.5 -29
s-17.833 -21 -28.5 -29s-20.334 -12 -29.001 -12zM921.007 586.999c-8.66699 0 -18.4971 4 -29.4971 12s-20.5 17.5 -28.5 28.5s-12 20.833 -12 29.5c0 9.33301 4 19.333 12 30s17.5 20 28.5 28s20.833 12 29.5 12c9.33301 0 19.166 -4 29.499 -12
s19.666 -17.333 27.999 -28s12.5 -20.667 12.5 -30c0 -8 -4.16699 -17.667 -12.5 -29s-17.833 -21 -28.5 -29s-20.334 -12 -29.001 -12zM837.01 763.999c-8.66699 0 -18.4971 4 -29.4971 12s-20.5 17.5 -28.5 28.5s-12 20.833 -12 29.5c0 9.33301 4 19.333 12 30
s17.5 20 28.5 28s20.833 12 29.5 12c9.33301 0 19.166 -4 29.499 -12s19.666 -17.333 27.999 -28s12.5 -20.667 12.5 -30c0 -8 -4.16699 -17.667 -12.5 -29s-17.833 -21 -28.5 -29s-20.334 -12 -29.001 -12zM181.013 586.999c-8.66699 0 -18.4971 4 -29.4971 12
s-20.5 17.5 -28.5 28.5s-12 20.833 -12 29.5c0 9.33301 4 19.333 12 30s17.5 20 28.5 28s20.833 12 29.5 12c9.33301 0 19.166 -4 29.499 -12s19.666 -17.333 27.999 -28s12.5 -20.667 12.5 -30c0 -8 -4.16699 -17.667 -12.5 -29s-17.833 -21 -28.5 -29
s-20.334 -12 -29.001 -12z" />
    <glyph glyph-name="sheen_zainar.fina" unicode="&#xfeb8;&#xfeb0;" horiz-adv-x="1310" 
d="M1002 0l145 134h163v-134h-308zM1002 0c-46.667 0 -84.665 3.33008 -113.998 9.99707s-52 18.167 -68 34.5s-27.167 39 -33.5 68s-9.5 65.833 -9.5 110.5v157h120v-193c0 -21.333 6.16699 -35.5 18.5 -42.5s31.166 -10.5 56.499 -10.5h123
c4 16.667 6.66699 34.834 8 54.501s2 42.5 2 68.5c0 30.667 -2.5 62.167 -7.5 94.5s-11.5 65.5 -19.5 99.5l118 18c6 -19.333 11.167 -40.666 15.5 -63.999s7.66602 -47.333 9.99902 -72s3.5 -48 3.5 -70c0 -68 -7.5 -121.167 -22.5 -159.5s-38.833 -65.166 -71.5 -80.499
s-75.667 -23 -129 -23zM68.002 -272.003l-45 106.002c26 12 46.167 25 60.5 39s24.333 32.167 30 54.5s8.5 51.166 8.5 86.499v456h119v-456c0 -50.667 -5.83301 -93.834 -17.5 -129.501s-30 -66.167 -55 -91.5s-58.5 -47 -100.5 -65zM240.002 335.999v134h209v-134h-209z
M449.002 -0.000976562v470h119v-470h-119zM568.002 -0.000976562l0.00195312 134h133c26 0 45.167 3.5 57.5 10.5s18.5 21.167 18.5 42.5v193h120v-157c0 -44.667 -3.16699 -81.5 -9.5 -110.5s-17.833 -51.667 -34.5 -68s-40.834 -27.833 -72.501 -34.5
s-72.834 -10 -123.501 -10h-89zM1310 -0.000976562v134c6.66699 0 11.667 -6.16699 15 -18.5s5 -28.5 5 -48.5c0 -20.667 -1.66699 -37 -5 -49s-8.33301 -18 -15 -18zM754.004 586.999c-8.66699 0 -18.4971 4 -29.4971 12s-20.5 17.5 -28.5 28.5s-12 20.833 -12 29.5
c0 9.33301 4 19.333 12 30s17.5 20 28.5 28s20.833 12 29.5 12c9.33301 0 19.166 -4 29.499 -12s19.666 -17.333 27.999 -28s12.5 -20.667 12.5 -30c0 -8 -4.16699 -17.667 -12.5 -29s-17.833 -21 -28.5 -29s-20.334 -12 -29.001 -12zM921.007 586.999
c-8.66699 0 -18.4971 4 -29.4971 12s-20.5 17.5 -28.5 28.5s-12 20.833 -12 29.5c0 9.33301 4 19.333 12 30s17.5 20 28.5 28s20.833 12 29.5 12c9.33301 0 19.166 -4 29.499 -12s19.666 -17.333 27.999 -28s12.5 -20.667 12.5 -30c0 -8 -4.16699 -17.667 -12.5 -29
s-17.833 -21 -28.5 -29s-20.334 -12 -29.001 -12zM837.01 763.999c-8.66699 0 -18.4971 4 -29.4971 12s-20.5 17.5 -28.5 28.5s-12 20.833 -12 29.5c0 9.33301 4 19.333 12 30s17.5 20 28.5 28s20.833 12 29.5 12c9.33301 0 19.166 -4 29.499 -12s19.666 -17.333 27.999 -28
s12.5 -20.667 12.5 -30c0 -8 -4.16699 -17.667 -12.5 -29s-17.833 -21 -28.5 -29s-20.334 -12 -29.001 -12zM181.013 586.999c-8.66699 0 -18.4971 4 -29.4971 12s-20.5 17.5 -28.5 28.5s-12 20.833 -12 29.5c0 9.33301 4 19.333 12 30s17.5 20 28.5 28s20.833 12 29.5 12
c9.33301 0 19.166 -4 29.499 -12s19.666 -17.333 27.999 -28s12.5 -20.667 12.5 -30c0 -8 -4.16699 -17.667 -12.5 -29s-17.833 -21 -28.5 -29s-20.334 -12 -29.001 -12z" />
    <glyph glyph-name="sad_zainar" unicode="&#xfebb;&#xfeb0;" horiz-adv-x="1143" 
d="M941 -1l-0.000976562 334.998c-23.333 7.33301 -62 11 -116 11c-86 0 -150.333 -21.167 -193 -63.5s-64 -106.833 -64 -193.5h-119v381h119v-155c14.667 34 36.834 63.333 66.501 88s65.167 43.667 106.5 57s86.666 20 135.999 20c46.667 0 83.334 -4.66699 110.001 -14
s45.5 -25.166 56.5 -47.499s16.5 -53.166 16.5 -92.499v-326h-119zM67.999 -272.002l-45 106c26 12 46.167 25 60.5 39s24.333 32 30 54s8.5 50.667 8.5 86v456h119v-456c0 -50 -5.83301 -93 -17.5 -129s-30 -66.5 -55 -91.5s-58.5 -46.5 -100.5 -64.5zM239.999 334.998v134
h209v-134h-209zM448.999 -1.00195v135h611v-135h-611zM180.999 586.998c-8.66699 0 -18.4971 4 -29.4971 12s-20.5 17.5 -28.5 28.5s-12 20.833 -12 29.5c0 9.33301 4 19.333 12 30s17.5 20 28.5 28s20.833 12 29.5 12c9.33301 0 19.166 -4 29.499 -12
s19.666 -17.333 27.999 -28s12.5 -20.667 12.5 -30c0 -8 -4.16699 -17.667 -12.5 -29s-17.833 -21 -28.5 -29s-20.334 -12 -29.001 -12z" />
    <glyph glyph-name="sad_zainar.fina" unicode="&#xfebc;&#xfeb0;" horiz-adv-x="1146" 
d="M1060 0v134h86v-134h-86zM941 -1l-0.000976562 334.998c-23.333 7.33301 -62 11 -116 11c-86 0 -150.333 -21.167 -193 -63.5s-64 -106.833 -64 -193.5h-119v381h119v-155c14.667 34 36.834 63.333 66.501 88s65.167 43.667 106.5 57s86.666 20 135.999 20
c46.667 0 83.334 -4.66699 110.001 -14s45.5 -25.166 56.5 -47.499s16.5 -53.166 16.5 -92.499v-326h-119zM67.999 -272.002l-45 106c26 12 46.167 25 60.5 39s24.333 32 30 54s8.5 50.667 8.5 86v456h119v-456c0 -50 -5.83301 -93 -17.5 -129s-30 -66.5 -55 -91.5
s-58.5 -46.5 -100.5 -64.5zM239.999 334.998v134h209v-134h-209zM448.999 -1.00195v135h611v-135h-611zM1146 -0.00195312v134c6.66699 0 11.667 -6.16699 15 -18.5s5 -28.5 5 -48.5c0 -20.667 -1.66699 -37 -5 -49s-8.33301 -18 -15 -18zM180.999 586.998
c-8.66699 0 -18.4971 4 -29.4971 12s-20.5 17.5 -28.5 28.5s-12 20.833 -12 29.5c0 9.33301 4 19.333 12 30s17.5 20 28.5 28s20.833 12 29.5 12c9.33301 0 19.166 -4 29.499 -12s19.666 -17.333 27.999 -28s12.5 -20.667 12.5 -30c0 -8 -4.16699 -17.667 -12.5 -29
s-17.833 -21 -28.5 -29s-20.334 -12 -29.001 -12z" />
    <glyph glyph-name="dad_zainar" unicode="&#xfebf;&#xfeb0;" horiz-adv-x="1143" 
d="M941 -1l-0.000976562 334.998c-23.333 7.33301 -62 11 -116 11c-86 0 -150.333 -21.167 -193 -63.5s-64 -106.833 -64 -193.5h-119v381h119v-155c14.667 34 36.834 63.333 66.501 88s65.167 43.667 106.5 57s86.666 20 135.999 20c46.667 0 83.334 -4.66699 110.001 -14
s45.5 -25.166 56.5 -47.499s16.5 -53.166 16.5 -92.499v-326h-119zM67.999 -272.002l-45 106c26 12 46.167 25 60.5 39s24.333 32 30 54s8.5 50.667 8.5 86v456h119v-456c0 -50 -5.83301 -93 -17.5 -129s-30 -66.5 -55 -91.5s-58.5 -46.5 -100.5 -64.5zM239.999 334.998v134
h209v-134h-209zM448.999 -1.00195v135h611v-135h-611zM798.999 586.998c-8.66699 0 -18.4971 4 -29.4971 12s-20.5 17.5 -28.5 28.5s-12 20.833 -12 29.5c0 9.33301 4 19.333 12 30s17.5 20 28.5 28s20.833 12 29.5 12c9.33301 0 19.166 -4 29.499 -12
s19.666 -17.333 27.999 -28s12.5 -20.667 12.5 -30c0 -8 -4.16699 -17.667 -12.5 -29s-17.833 -21 -28.5 -29s-20.334 -12 -29.001 -12zM181.002 586.998c-8.66699 0 -18.4971 4 -29.4971 12s-20.5 17.5 -28.5 28.5s-12 20.833 -12 29.5c0 9.33301 4 19.333 12 30
s17.5 20 28.5 28s20.833 12 29.5 12c9.33301 0 19.166 -4 29.499 -12s19.666 -17.333 27.999 -28s12.5 -20.667 12.5 -30c0 -8 -4.16699 -17.667 -12.5 -29s-17.833 -21 -28.5 -29s-20.334 -12 -29.001 -12z" />
    <glyph glyph-name="dad_zainar.fina" unicode="&#xfec0;&#xfeb0;" horiz-adv-x="1146" 
d="M1060 0v134h86v-134h-86zM941 -1l-0.000976562 334.998c-23.333 7.33301 -62 11 -116 11c-86 0 -150.333 -21.167 -193 -63.5s-64 -106.833 -64 -193.5h-119v381h119v-155c14.667 34 36.834 63.333 66.501 88s65.167 43.667 106.5 57s86.666 20 135.999 20
c46.667 0 83.334 -4.66699 110.001 -14s45.5 -25.166 56.5 -47.499s16.5 -53.166 16.5 -92.499v-326h-119zM67.999 -272.002l-45 106c26 12 46.167 25 60.5 39s24.333 32 30 54s8.5 50.667 8.5 86v456h119v-456c0 -50 -5.83301 -93 -17.5 -129s-30 -66.5 -55 -91.5
s-58.5 -46.5 -100.5 -64.5zM239.999 334.998v134h209v-134h-209zM448.999 -1.00195v135h611v-135h-611zM1146 -0.00195312v134c6.66699 0 11.667 -6.16699 15 -18.5s5 -28.5 5 -48.5c0 -20.667 -1.66699 -37 -5 -49s-8.33301 -18 -15 -18zM808.999 586.998
c-8.66699 0 -18.4971 4 -29.4971 12s-20.5 17.5 -28.5 28.5s-12 20.833 -12 29.5c0 9.33301 4 19.333 12 30s17.5 20 28.5 28s20.833 12 29.5 12c9.33301 0 19.166 -4 29.499 -12s19.666 -17.333 27.999 -28s12.5 -20.667 12.5 -30c0 -8 -4.16699 -17.667 -12.5 -29
s-17.833 -21 -28.5 -29s-20.334 -12 -29.001 -12zM181.002 586.998c-8.66699 0 -18.4971 4 -29.4971 12s-20.5 17.5 -28.5 28.5s-12 20.833 -12 29.5c0 9.33301 4 19.333 12 30s17.5 20 28.5 28s20.833 12 29.5 12c9.33301 0 19.166 -4 29.499 -12
s19.666 -17.333 27.999 -28s12.5 -20.667 12.5 -30c0 -8 -4.16699 -17.667 -12.5 -29s-17.833 -21 -28.5 -29s-20.334 -12 -29.001 -12z" />
    <glyph glyph-name="meem_rehar.fina" unicode="&#xfee4;&#xfeae;" horiz-adv-x="1010" 
d="M691 -12c-44 0 -80.999 3.66699 -110.999 11s-54 19 -72 35s-31 37 -39 63s-12 57 -12 93c0 34 1.16699 61.667 3.5 83s6.16602 42.333 11.499 63h-231v134h674v-447c-38 -13.333 -74.167 -22.5 -108.5 -27.5s-72.833 -7.5 -115.5 -7.5zM729.001 0l175 134h106v-134h-281
zM583.001 123h170.999c16.667 0 27.834 3.16699 33.501 9.5s8.5 18.5 8.5 36.5v167h-170c-16 0 -27.167 -3.16699 -33.5 -9.5s-9.5 -17.833 -9.5 -34.5v-169zM68 -272l-45 106.002c26 12 46.167 25 60.5 39s24.333 32.167 30 54.5s8.5 51.166 8.5 86.499v456h119v-456
c0 -50.667 -5.83301 -93.834 -17.5 -129.501s-30 -66.167 -55 -91.5s-58.5 -47 -100.5 -65zM1010 0.00195312v134c6.66699 0 11.667 -6.16699 15 -18.5s5 -28.5 5 -48.5c0 -20.667 -1.66699 -37 -5 -49s-8.33301 -18 -15 -18z" />
    <glyph glyph-name="meem_zainar.fina" unicode="&#xfee4;&#xfeb0;" horiz-adv-x="1010" 
d="M691 -12c-44 0 -80.999 3.66699 -110.999 11s-54 19 -72 35s-31 37 -39 63s-12 57 -12 93c0 34 1.16699 61.667 3.5 83s6.16602 42.333 11.499 63h-231v134h674v-447c-38 -13.333 -74.167 -22.5 -108.5 -27.5s-72.833 -7.5 -115.5 -7.5zM729.001 0l175 134h106v-134h-281
zM583.001 123h170.999c16.667 0 27.834 3.16699 33.501 9.5s8.5 18.5 8.5 36.5v167h-170c-16 0 -27.167 -3.16699 -33.5 -9.5s-9.5 -17.833 -9.5 -34.5v-169zM68 -272l-45 106.002c26 12 46.167 25 60.5 39s24.333 32.167 30 54.5s8.5 51.166 8.5 86.499v456h119v-456
c0 -50.667 -5.83301 -93.834 -17.5 -129.501s-30 -66.167 -55 -91.5s-58.5 -47 -100.5 -65zM1010 0.00195312v134c6.66699 0 11.667 -6.16699 15 -18.5s5 -28.5 5 -48.5c0 -20.667 -1.66699 -37 -5 -49s-8.33301 -18 -15 -18zM181 587.002
c-8.66699 0 -18.4971 4 -29.4971 12s-20.5 17.5 -28.5 28.5s-12 20.833 -12 29.5c0 9.33301 4 19.333 12 30s17.5 20 28.5 28s20.833 12 29.5 12c9.33301 0 19.166 -4 29.499 -12s19.666 -17.333 27.999 -28s12.5 -20.667 12.5 -30c0 -8 -4.16699 -17.667 -12.5 -29
s-17.833 -21 -28.5 -29s-20.334 -12 -29.001 -12z" />
    <glyph glyph-name="noon_yehHamzaabovear.fina" unicode="&#xfee8;&#xfe8a;" horiz-adv-x="1157" 
d="M952 0v470h120v-336h85v-134h-205zM65 -64c0 24 1.16699 48.8291 3.5 74.4961s6 50.5 11 74.5s10.833 46.333 17.5 67l116 -19c-8 -30.667 -14.833 -60.167 -20.5 -88.5s-8.5 -55.833 -8.5 -82.5c0 -23.333 0.833008 -43.5 2.5 -60.5s4.5 -33.5 8.5 -49.5h282
c48 0 86 1.33301 114 4s47.833 7.83398 59.5 15.501s17.5 18.834 17.5 33.501v154l-135 15c-45.333 5.33301 -80 15 -104 29s-40.5 34.667 -49.5 62s-13.5 62.666 -13.5 105.999c0 36.667 3 67.834 9 93.501s16.5 46.167 31.5 61.5s36 26.5 63 33.5s61.5 10.5 103.5 10.5
h379v-134h-459v-127l143 -15c40 -4 70.833 -12.833 92.5 -26.5s36.834 -33 45.501 -58s13 -56.833 13 -95.5v-75c0 -42.667 -5.5 -78.167 -16.5 -106.5s-30 -50.833 -57 -67.5s-64.667 -28.667 -113 -36s-109.5 -11 -183.5 -11c-70 0 -127.833 3 -173.5 9
s-81.334 16.833 -107.001 32.5s-44 37.834 -55 66.501s-16.5 65.334 -16.5 110.001zM1157 -0.00390625v134c7.33301 0 12.5 -6.16699 15.5 -18.5s4.5 -28.5 4.5 -48.5c0 -20.667 -1.5 -37 -4.5 -49s-8.16699 -18 -15.5 -18zM1012 586.996c-8.66699 0 -18.4971 4 -29.4971 12
s-20.5 17.5 -28.5 28.5s-12 20.833 -12 29.5c0 9.33301 4 19.333 12 30s17.5 20 28.5 28s20.833 12 29.5 12c9.33301 0 19.166 -4 29.499 -12s19.666 -17.333 27.999 -28s12.5 -20.667 12.5 -30c0 -8 -4.16699 -17.667 -12.5 -29s-17.833 -21 -28.5 -29
s-20.334 -12 -29.001 -12zM37.0029 266.996l0.00195312 57.999l40 11c-2.66699 8 -4.83398 16.833 -6.50098 26.5s-2.5 21.5 -2.5 35.5c0 36 7.16699 64 21.5 84s34.666 34.5 60.999 43.5s56.833 14.5 91.5 16.5v-69c-16.667 -1.33301 -33 -3.66602 -49 -6.99902
s-31.333 -8.33301 -46 -15v-66c0 -10.667 3 -17.5 9 -20.5s16.333 -2.5 31 1.5l82 22v-60z" />
    <glyph glyph-name="alefMaksura_rehar.fina" unicode="&#x649;&#xfeae;" horiz-adv-x="654" 
d="M68 -272l-45 106.002c26 12 46.167 25 60.5 39s24.333 32.167 30 54.5s8.5 51.166 8.5 86.499v456h119v-456c0 -50.667 -5.83301 -93.834 -17.5 -129.501s-30 -66.167 -55 -91.5s-58.5 -47 -100.5 -65zM240 336.002v134h209v-134h-209zM449 0.00195312v470h119v-336h86
v-134h-205zM654 0.00195312v134c6.66699 0 11.667 -6.16699 15 -18.5s5 -28.5 5 -48.5c0 -20.667 -1.66699 -37 -5 -49s-8.33301 -18 -15 -18z" />
    <glyph glyph-name="alefMaksura_zainar.fina" unicode="&#x649;&#xfeb0;" horiz-adv-x="654" 
d="M68 -272l-45 106.002c26 12 46.167 25 60.5 39s24.333 32.167 30 54.5s8.5 51.166 8.5 86.499v456h119v-456c0 -50.667 -5.83301 -93.834 -17.5 -129.501s-30 -66.167 -55 -91.5s-58.5 -47 -100.5 -65zM240 336.002v134h209v-134h-209zM449 0.00195312v470h119v-336h86
v-134h-205zM654 0.00195312v134c6.66699 0 11.667 -6.16699 15 -18.5s5 -28.5 5 -48.5c0 -20.667 -1.66699 -37 -5 -49s-8.33301 -18 -15 -18zM181 587.002c-8.66699 0 -18.4971 4 -29.4971 12s-20.5 17.5 -28.5 28.5s-12 20.833 -12 29.5c0 9.33301 4 19.333 12 30
s17.5 20 28.5 28s20.833 12 29.5 12c9.33301 0 19.166 -4 29.499 -12s19.666 -17.333 27.999 -28s12.5 -20.667 12.5 -30c0 -8 -4.16699 -17.667 -12.5 -29s-17.833 -21 -28.5 -29s-20.334 -12 -29.001 -12z" />
    <glyph glyph-name="alefMaksura_noonar.fina" unicode="&#x649;&#xfee6;" horiz-adv-x="1000" 
d="M796 0v470h119v-336h85v-134h-204zM587 336v134h209v-134h-209zM317 -240c-51.333 0 -93.501 3.50098 -126.501 10.501s-58.667 19.167 -77 36.5s-31 41.333 -38 72s-10.5 69.667 -10.5 117c0 28 1.16699 56.333 3.5 85s6 56.667 11 84s10.833 53 17.5 77l112 -18
c-8 -36.667 -14.167 -72 -18.5 -106s-6.5 -66.667 -6.5 -98c0 -26.667 0.833008 -49.834 2.5 -69.501s4.5 -38.167 8.5 -55.5h157c40.667 0 70.167 3.5 88.5 10.5s27.5 21.167 27.5 42.5v522h119v-484c0 -44.667 -3.5 -81.667 -10.5 -111s-20 -52.5 -39 -69.5
s-46.167 -28.833 -81.5 -35.5s-81.666 -10 -138.999 -10zM327.999 595.001c-8.66699 0 -18.332 4 -28.999 12s-20.167 17.5 -28.5 28.5s-12.5 20.833 -12.5 29.5c0 9.33301 4 19.333 12 30s17.5 20 28.5 28s20.833 12 29.5 12c9.33301 0 19.333 -4 30 -12s20 -17.333 28 -28
s12 -20.667 12 -30c0 -8 -4.16699 -17.667 -12.5 -29s-17.833 -21 -28.5 -29s-20.334 -12 -29.001 -12zM1000 0.000976562v134c7.33301 0 12.5 -6.16699 15.5 -18.5s4.5 -28.5 4.5 -48.5c0 -20.667 -1.5 -37 -4.5 -49s-8.16699 -18 -15.5 -18z" />
    <glyph glyph-name="yehHamzaabove_yehHamzaabovear.fina" unicode="&#xfe8c;&#xfe8a;" horiz-adv-x="1157" 
d="M952 0v470h120v-336h85v-134h-205zM65 -64c0 24 1.16699 48.8291 3.5 74.4961s6 50.5 11 74.5s10.833 46.333 17.5 67l116 -19c-8 -30.667 -14.833 -60.167 -20.5 -88.5s-8.5 -55.833 -8.5 -82.5c0 -23.333 0.833008 -43.5 2.5 -60.5s4.5 -33.5 8.5 -49.5h282
c48 0 86 1.33301 114 4s47.833 7.83398 59.5 15.501s17.5 18.834 17.5 33.501v154l-135 15c-45.333 5.33301 -80 15 -104 29s-40.5 34.667 -49.5 62s-13.5 62.666 -13.5 105.999c0 36.667 3 67.834 9 93.501s16.5 46.167 31.5 61.5s36 26.5 63 33.5s61.5 10.5 103.5 10.5
h379v-134h-459v-127l143 -15c40 -4 70.833 -12.833 92.5 -26.5s36.834 -33 45.501 -58s13 -56.833 13 -95.5v-75c0 -42.667 -5.5 -78.167 -16.5 -106.5s-30 -50.833 -57 -67.5s-64.667 -28.667 -113 -36s-109.5 -11 -183.5 -11c-70 0 -127.833 3 -173.5 9
s-81.334 16.833 -107.001 32.5s-44 37.834 -55 66.501s-16.5 65.334 -16.5 110.001zM1157 -0.00390625v134c7.33301 0 12.5 -6.16699 15.5 -18.5s4.5 -28.5 4.5 -48.5c0 -20.667 -1.5 -37 -4.5 -49s-8.16699 -18 -15.5 -18zM896 576.996l0.00195312 57.999l40 11
c-2.66699 8 -4.83398 16.833 -6.50098 26.5s-2.5 21.5 -2.5 35.5c0 36 7.16699 64 21.5 84s34.666 34.5 60.999 43.5s56.833 14.5 91.5 16.5v-69c-16.667 -1.33301 -33 -3.66602 -49 -6.99902s-31.333 -8.33301 -46 -15v-66c0 -10.667 3 -17.5 9 -20.5s16.333 -2.5 31 1.5
l82 22v-60zM34.002 266.995l0.00195312 57.999l40 11c-2.66699 8 -4.83398 16.833 -6.50098 26.5s-2.5 21.5 -2.5 35.5c0 36 7.16699 64 21.5 84s34.666 34.5 60.999 43.5s56.833 14.5 91.5 16.5v-69c-16.667 -1.33301 -33 -3.66602 -49 -6.99902s-31.333 -8.33301 -46 -15
v-66c0 -10.667 3 -17.5 9 -20.5s16.333 -2.5 31 1.5l82 22v-60z" />
    <glyph glyph-name="uni066E.init" unicode="&#x66e;" horiz-adv-x="340" 
d="M0 0v134h198l-63 -63v399h119v-470h-254zM0 0c-7.33301 0 -12.5 6 -15.5 18s-4.5 28.333 -4.5 49c0 20 1.5 36.167 4.5 48.5s8.16699 18.5 15.5 18.5v-134z" />
    <glyph glyph-name="uni066E.medi" unicode="&#x66e;" horiz-adv-x="340" 
d="M254 0v134h86v-134h-86zM0 0v134h198l-63 -63v399h119v-470h-254zM0 0c-7.33301 0 -12.5 6 -15.5 18s-4.5 28.333 -4.5 49c0 20 1.5 36.167 4.5 48.5s8.16699 18.5 15.5 18.5v-134zM340 0v134c6.66699 0 11.667 -6.16699 15 -18.5s5 -28.5 5 -48.5
c0 -20.667 -1.66699 -37 -5 -49s-8.33301 -18 -15 -18z" />
    <glyph glyph-name="uni066E.fina" unicode="&#x66e;" horiz-adv-x="904" 
d="M818 0v134h86v-134h-86zM219 0c-37.333 0 -67.665 7.33301 -90.998 22s-40.5 37.667 -51.5 69s-16.5 72.333 -16.5 123c0 32.667 2.66699 65.5 8 98.5s12.666 63.5 21.999 91.5l114 -19c-8 -24.667 -14.167 -48.5 -18.5 -71.5s-6.5 -45.167 -6.5 -66.5
c0 -24 1.16699 -45 3.5 -63s6.16602 -34.667 11.499 -50h505v336h119v-470h-599zM904.001 0v134c6.66699 0 11.667 -6.16699 15 -18.5s5 -28.5 5 -48.5c0 -20.667 -1.66699 -37 -5 -49s-8.33301 -18 -15 -18z" />
    <glyph glyph-name="uni066F.fina" unicode="&#x66f;" horiz-adv-x="912" 
d="M827 0v134h85v-134h-85zM214 -270c-37.333 0 -67.666 8.50293 -90.999 25.5029s-40.5 44 -51.5 81s-16.5 85.5 -16.5 145.5c0 26 1.16699 52.167 3.5 78.5s5.66602 52 9.99902 77s9.83301 48.5 16.5 70.5l114 -18c-8 -31.333 -14.167 -61.833 -18.5 -91.5
s-6.5 -57.834 -6.5 -84.501c0 -32 1 -59.833 3 -83.5s5.66699 -45.834 11 -66.501h520v136h119v-83c0 -44 -6.66699 -79.833 -20 -107.5s-34.5 -47.834 -63.5 -60.501s-66.5 -19 -112.5 -19h-417zM550 0.00292969c-33.333 0 -61.666 4.16797 -84.999 12.501s-42 22 -56 41
s-24.333 44.333 -31 76s-10 70.167 -10 115.5c0 44.667 4.16699 82.167 12.5 112.5s21.666 54.666 39.999 72.999s42.5 31.5 72.5 39.5s66.667 12 110 12c46.667 0 87.167 -2.5 121.5 -7.5s68.5 -14.167 102.5 -27.5v-447h-277zM495 134.004h170
c16 0 27.167 3.16699 33.5 9.5s9.5 17.833 9.5 34.5v170h-161c-20 0 -33.667 -3.16699 -41 -9.5s-11 -18.5 -11 -36.5v-168zM912 0.00390625v134c7.33301 0 12.5 -6.16699 15.5 -18.5s4.5 -28.5 4.5 -48.5c0 -20.667 -1.5 -37 -4.5 -49s-8.16699 -18 -15.5 -18z" />
    <glyph glyph-name="uni06A1.init" unicode="&#x6a1;" horiz-adv-x="661" 
d="M0 0v134.002h132c-5.33301 21.333 -9.16602 42.666 -11.499 63.999s-3.5 48.666 -3.5 81.999c0 36 4 67 12 93s21 47 39 63s42.167 27.667 72.5 35s67.166 11 110.499 11c42.667 0 81.167 -2.5 115.5 -7.5s70.5 -14.167 108.5 -27.5v-447h-575zM244 134.002h170
c16 0 27 3.16699 33 9.5s9 17.833 9 34.5v169h-170c-16 0 -27 -3.16699 -33 -9.5s-9 -18.5 -9 -36.5v-167zM0 0.00195312c-7.33301 0 -12.5 6 -15.5 18s-4.5 28.333 -4.5 49c0 20 1.5 36.167 4.5 48.5s8.16699 18.5 15.5 18.5v-134z" />
    <glyph glyph-name="uni06A1.medi" unicode="&#x6a1;" horiz-adv-x="661" 
d="M575 1v134h86v-134h-86zM0 0v134.002h132c-5.33301 21.333 -9.16602 42.666 -11.499 63.999s-3.5 48.666 -3.5 81.999c0 36 4 67 12 93s21 47 39 63s42.167 27.667 72.5 35s67.166 11 110.499 11c42.667 0 81.167 -2.5 115.5 -7.5s70.5 -14.167 108.5 -27.5v-447h-575z
M244 134.002h170c16 0 27 3.16699 33 9.5s9 17.833 9 34.5v169h-170c-16 0 -27 -3.16699 -33 -9.5s-9 -18.5 -9 -36.5v-167zM0 0.00195312c-7.33301 0 -12.5 6 -15.5 18s-4.5 28.333 -4.5 49c0 20 1.5 36.167 4.5 48.5s8.16699 18.5 15.5 18.5v-134zM661 0.00195312v134
c6.66699 0 11.667 -6.16699 15 -18.5s5 -28.5 5 -48.5c0 -20.667 -1.66699 -37 -5 -49s-8.33301 -18 -15 -18z" />
    <glyph glyph-name="uni06A1.fina" unicode="&#x6a1;" horiz-adv-x="1004" 
d="M918 1v134h86v-134h-86zM219 0c-37.333 0 -67.665 7.33496 -90.998 22.002s-40.5 37.667 -51.5 69s-16.5 72.333 -16.5 123c0 32.667 2.66699 65.5 8 98.5s12.666 63.5 21.999 91.5l114 -19c-8 -24.667 -14.167 -48.5 -18.5 -71.5s-6.5 -45.167 -6.5 -66.5
c0 -24 1.16699 -45 3.5 -63s6.16602 -34.667 11.499 -50h280c-5.33301 21.333 -9 42.666 -11 63.999s-3 48.666 -3 81.999c0 36 4 67 12 93s21.167 47 39.5 63s42.333 27.667 72 35s66.5 11 110.5 11c43.333 0 82 -2.5 116 -7.5s70 -14.167 108 -27.5v-447h-699z
M586.001 134.002h171c16 0 27 3.16699 33 9.5s9 17.833 9 34.5v167h-170c-16.667 0 -28 -3.16699 -34 -9.5s-9 -18.5 -9 -36.5v-165zM1004 0.00195312v134c6.66699 0 11.667 -6.16699 15 -18.5s5 -28.5 5 -48.5c0 -20.667 -1.66699 -37 -5 -49s-8.33301 -18 -15 -18z" />
    <glyph glyph-name="uni06C2.fina" unicode="&#x6c2;" horiz-adv-x="632" 
d="M549 0v134h83v-134h-83zM295 0c-45.333 0 -82.666 3.16504 -111.999 9.49805s-52 18 -68 35s-27 40.833 -33 71.5s-9 70.334 -9 119.001s3 88.334 9 119.001s17 54.5 33 71.5s38.667 28.667 68 35s66.666 9.5 111.999 9.5h257v-470h-257zM252 133.998h180v202h-180
c-18 0 -31.333 -3.5 -40 -10.5s-13 -18.167 -13 -33.5v-114c0 -15.333 4.33301 -26.5 13 -33.5s22 -10.5 40 -10.5zM632 -0.00195312v134c6.66699 0 11.667 -6.16699 15 -18.5s5 -28.5 5 -48.5c0 -20.667 -1.66699 -37 -5 -49s-8.33301 -18 -15 -18zM210 576.998
l0.00195312 57.999l40 11c-2.66699 8 -4.83398 16.833 -6.50098 26.5s-2.5 21.5 -2.5 35.5c0 36 7.16699 64 21.5 84s34.666 34.5 60.999 43.5s56.833 14.5 91.5 16.5v-69c-16.667 -1.33301 -33 -3.66602 -49 -6.99902s-31.333 -8.33301 -46 -15v-66
c0 -10.667 3 -17.5 9 -20.5s16.333 -2.5 31 1.5l82 22v-60z" />
    <glyph glyph-name="uni06C3.fina" unicode="&#x6c3;" horiz-adv-x="663" 
d="M81 0l-0.000976562 325c0 38 7.16699 68.5 21.5 91.5s38.666 39.667 72.999 50s80.833 15.5 139.5 15.5c31.333 0 62.333 -1.16699 93 -3.5s60.334 -5.83301 89.001 -10.5s55.334 -10.334 80.001 -17.001l-15 -128c-22 6 -45.333 10.833 -70 14.5
s-50.167 6.33398 -76.5 8.00098s-53.833 2.5 -82.5 2.5c-24.667 0 -49 -0.5 -73 -1.5s-44 -2.83301 -60 -5.5v-341h-119zM458.999 0v451h118v-317h86v-134h-204zM662.999 0v134c6.66699 0 11.667 -6.16699 15 -18.5s5 -28.5 5 -48.5c0 -20.667 -1.66699 -37 -5 -49
s-8.33301 -18 -15 -18zM250.999 587c-8.66699 0 -18.4971 4 -29.4971 12s-20.5 17.5 -28.5 28.5s-12 20.833 -12 29.5c0 9.33301 4 19.333 12 30s17.5 20 28.5 28s20.833 12 29.5 12c9.33301 0 19.166 -4 29.499 -12s19.666 -17.333 27.999 -28s12.5 -20.667 12.5 -30
c0 -8 -4.16699 -17.667 -12.5 -29s-17.833 -21 -28.5 -29s-20.334 -12 -29.001 -12zM418.002 587c-8.66699 0 -18.4971 4 -29.4971 12s-20.5 17.5 -28.5 28.5s-12 20.833 -12 29.5c0 9.33301 4 19.333 12 30s17.5 20 28.5 28s20.833 12 29.5 12
c9.33301 0 19.166 -4 29.499 -12s19.666 -17.333 27.999 -28s12.5 -20.667 12.5 -30c0 -8 -4.16699 -17.667 -12.5 -29s-17.833 -21 -28.5 -29s-20.334 -12 -29.001 -12z" />
    <glyph glyph-name="uniFB51" unicode="&#x671;" horiz-adv-x="290" arabic-form="final" 
d="M85 0v470h120v-336h85v-134h-205zM290 0v134c6.66699 0 11.667 -6.16699 15 -18.5s5 -28.5 5 -48.5c0 -20.667 -1.66699 -37 -5 -49s-8.33301 -18 -15 -18zM2 587c0 59.333 13.832 105.5 41.499 138.5s68.834 49.5 123.501 49.5c44.667 0 77.167 -6.5 97.5 -19.5
s30.5 -33.833 30.5 -62.5v-106h-89v120c-4.66699 2 -10.167 3.33301 -16.5 4s-13.833 1 -22.5 1c-26 0 -45.167 -10.167 -57.5 -30.5s-18.5 -51.833 -18.5 -94.5h-89zM-28.001 545v58h323v-58h-323z" />
    <glyph glyph-name="uniFB57" unicode="&#x67e;" horiz-adv-x="904" arabic-form="final" 
d="M818 0v134h86v-134h-86zM219 0c-37.333 0 -67.665 7.33301 -90.998 22s-40.5 37.667 -51.5 69s-16.5 72.333 -16.5 123c0 32.667 2.66699 65.5 8 98.5s12.666 63.5 21.999 91.5l114 -19c-8 -24.667 -14.167 -48.5 -18.5 -71.5s-6.5 -45.167 -6.5 -66.5
c0 -24 1.16699 -45 3.5 -63s6.16602 -34.667 11.499 -50h505v336h119v-470h-599zM904.001 0v134c6.66699 0 11.667 -6.16699 15 -18.5s5 -28.5 5 -48.5c0 -20.667 -1.66699 -37 -5 -49s-8.33301 -18 -15 -18zM449.001 -392c-8.66699 0 -18.4971 4 -29.4971 12
s-20.5 17.5 -28.5 28.5s-12 20.833 -12 29.5c0 9.33301 4 19.333 12 30s17.5 20 28.5 28s20.833 12 29.5 12c9.33301 0 19.166 -4 29.499 -12s19.666 -17.333 27.999 -28s12.5 -20.667 12.5 -30c0 -8 -4.16699 -17.667 -12.5 -29s-17.833 -21 -28.5 -29
s-20.334 -12 -29.001 -12zM366.004 -225c-8.66699 0 -18.4971 4 -29.4971 12s-20.5 17.5 -28.5 28.5s-12 20.833 -12 29.5c0 9.33301 4 19.333 12 30s17.5 20 28.5 28s20.833 12 29.5 12c9.33301 0 19.166 -4 29.499 -12s19.666 -17.333 27.999 -28s12.5 -20.667 12.5 -30
c0 -8 -4.16699 -17.667 -12.5 -29s-17.833 -21 -28.5 -29s-20.334 -12 -29.001 -12zM533.007 -225c-8.66699 0 -18.4971 4 -29.4971 12s-20.5 17.5 -28.5 28.5s-12 20.833 -12 29.5c0 9.33301 4 19.333 12 30s17.5 20 28.5 28s20.833 12 29.5 12
c9.33301 0 19.166 -4 29.499 -12s19.666 -17.333 27.999 -28s12.5 -20.667 12.5 -30c0 -8 -4.16699 -17.667 -12.5 -29s-17.833 -21 -28.5 -29s-20.334 -12 -29.001 -12z" />
    <glyph glyph-name="uniFB58" unicode="&#x67e;" horiz-adv-x="340" arabic-form="initial" 
d="M0 0v134h198l-63 -63v399h119v-470h-254zM0 0c-7.33301 0 -12.5 6 -15.5 18s-4.5 28.333 -4.5 49c0 20 1.5 36.167 4.5 48.5s8.16699 18.5 15.5 18.5v-134zM136 -381c-8.66699 0 -18.4971 4 -29.4971 12s-20.5 17.5 -28.5 28.5s-12 20.833 -12 29.5
c0 9.33301 4 19.333 12 30s17.5 20 28.5 28s20.833 12 29.5 12c9.33301 0 19.166 -4 29.499 -12s19.666 -17.333 27.999 -28s12.5 -20.667 12.5 -30c0 -8 -4.16699 -17.667 -12.5 -29s-17.833 -21 -28.5 -29s-20.334 -12 -29.001 -12zM53.0029 -214
c-8.66699 0 -18.4971 4 -29.4971 12s-20.5 17.5 -28.5 28.5s-12 20.833 -12 29.5c0 9.33301 4 19.333 12 30s17.5 20 28.5 28s20.833 12 29.5 12c9.33301 0 19.166 -4 29.499 -12s19.666 -17.333 27.999 -28s12.5 -20.667 12.5 -30c0 -8 -4.16699 -17.667 -12.5 -29
s-17.833 -21 -28.5 -29s-20.334 -12 -29.001 -12zM220.006 -214c-8.66699 0 -18.4971 4 -29.4971 12s-20.5 17.5 -28.5 28.5s-12 20.833 -12 29.5c0 9.33301 4 19.333 12 30s17.5 20 28.5 28s20.833 12 29.5 12c9.33301 0 19.166 -4 29.499 -12s19.666 -17.333 27.999 -28
s12.5 -20.667 12.5 -30c0 -8 -4.16699 -17.667 -12.5 -29s-17.833 -21 -28.5 -29s-20.334 -12 -29.001 -12z" />
    <glyph glyph-name="uniFB59" unicode="&#x67e;" horiz-adv-x="340" arabic-form="medial" 
d="M254 0v134h86v-134h-86zM0 0v134h198l-63 -63v399h119v-470h-254zM0 0c-7.33301 0 -12.5 6 -15.5 18s-4.5 28.333 -4.5 49c0 20 1.5 36.167 4.5 48.5s8.16699 18.5 15.5 18.5v-134zM340 0v134c6.66699 0 11.667 -6.16699 15 -18.5s5 -28.5 5 -48.5
c0 -20.667 -1.66699 -37 -5 -49s-8.33301 -18 -15 -18zM195 -387c-8.66699 0 -18.4971 4 -29.4971 12s-20.5 17.5 -28.5 28.5s-12 20.833 -12 29.5c0 9.33301 4 19.333 12 30s17.5 20 28.5 28s20.833 12 29.5 12c9.33301 0 19.166 -4 29.499 -12s19.666 -17.333 27.999 -28
s12.5 -20.667 12.5 -30c0 -8 -4.16699 -17.667 -12.5 -29s-17.833 -21 -28.5 -29s-20.334 -12 -29.001 -12zM112.003 -220c-8.66699 0 -18.4971 4 -29.4971 12s-20.5 17.5 -28.5 28.5s-12 20.833 -12 29.5c0 9.33301 4 19.333 12 30s17.5 20 28.5 28s20.833 12 29.5 12
c9.33301 0 19.166 -4 29.499 -12s19.666 -17.333 27.999 -28s12.5 -20.667 12.5 -30c0 -8 -4.16699 -17.667 -12.5 -29s-17.833 -21 -28.5 -29s-20.334 -12 -29.001 -12zM279.006 -220c-8.66699 0 -18.4971 4 -29.4971 12s-20.5 17.5 -28.5 28.5s-12 20.833 -12 29.5
c0 9.33301 4 19.333 12 30s17.5 20 28.5 28s20.833 12 29.5 12c9.33301 0 19.166 -4 29.499 -12s19.666 -17.333 27.999 -28s12.5 -20.667 12.5 -30c0 -8 -4.16699 -17.667 -12.5 -29s-17.833 -21 -28.5 -29s-20.334 -12 -29.001 -12z" />
    <glyph glyph-name="uniFB67" unicode="&#x679;" horiz-adv-x="904" arabic-form="final" 
d="M818 0v134h86v-134h-86zM219 0c-37.333 0 -67.665 7.33301 -90.998 22s-40.5 37.667 -51.5 69s-16.5 72.333 -16.5 123c0 32.667 2.66699 65.5 8 98.5s12.666 63.5 21.999 91.5l114 -19c-8 -24.667 -14.167 -48.5 -18.5 -71.5s-6.5 -45.167 -6.5 -66.5
c0 -24 1.16699 -45 3.5 -63s6.16602 -34.667 11.499 -50h505v336h119v-470h-599zM904.001 0v134c6.66699 0 11.667 -6.16699 15 -18.5s5 -28.5 5 -48.5c0 -20.667 -1.66699 -37 -5 -49s-8.33301 -18 -15 -18zM308.001 537l0.000976562 226h90v-115
c10 16.667 25 29.5 45 38.5s42.667 13.5 68 13.5c29.333 0 50.833 -6 64.5 -18s20.5 -33.333 20.5 -64v-81h-89v93c-4.66699 2 -10.334 3.66699 -17.001 5s-13.667 2 -21 2c-25.333 0 -43.5 -8.5 -54.5 -25.5s-16.5 -41.833 -16.5 -74.5h-90zM278.002 490v58h318v-58h-318z
" />
    <glyph glyph-name="uniFB68" unicode="&#x679;" horiz-adv-x="340" arabic-form="initial" 
d="M0 0v134h198l-63 -63v399h119v-470h-254zM0 0c-7.33301 0 -12.5 6 -15.5 18s-4.5 28.333 -4.5 49c0 20 1.5 36.167 4.5 48.5s8.16699 18.5 15.5 18.5v-134zM54 637l0.000976562 226h90v-115c10 16.667 25 29.5 45 38.5s42.667 13.5 68 13.5c29.333 0 50.833 -6 64.5 -18
s20.5 -33.333 20.5 -64v-81h-89v93c-4.66699 2 -10.334 3.66699 -17.001 5s-13.667 2 -21 2c-25.333 0 -43.5 -8.5 -54.5 -25.5s-16.5 -41.833 -16.5 -74.5h-90zM24.001 590v58h318v-58h-318z" />
    <glyph glyph-name="uniFB69" unicode="&#x679;" horiz-adv-x="340" arabic-form="medial" 
d="M254 0v134h86v-134h-86zM0 0v134h198l-63 -63v399h119v-470h-254zM0 0c-7.33301 0 -12.5 6 -15.5 18s-4.5 28.333 -4.5 49c0 20 1.5 36.167 4.5 48.5s8.16699 18.5 15.5 18.5v-134zM340 0v134c6.66699 0 11.667 -6.16699 15 -18.5s5 -28.5 5 -48.5
c0 -20.667 -1.66699 -37 -5 -49s-8.33301 -18 -15 -18zM54 637l0.000976562 226h90v-115c10 16.667 25 29.5 45 38.5s42.667 13.5 68 13.5c29.333 0 50.833 -6 64.5 -18s20.5 -33.333 20.5 -64v-81h-89v93c-4.66699 2 -10.334 3.66699 -17.001 5s-13.667 2 -21 2
c-25.333 0 -43.5 -8.5 -54.5 -25.5s-16.5 -41.833 -16.5 -74.5h-90zM24.001 590v58h318v-58h-318z" />
    <glyph glyph-name="uniFB6B" unicode="&#x6a4;" horiz-adv-x="1004" arabic-form="final" 
d="M918 1v134h86v-134h-86zM219 0c-37.333 0 -67.665 7.33496 -90.998 22.002s-40.5 37.667 -51.5 69s-16.5 72.333 -16.5 123c0 32.667 2.66699 65.5 8 98.5s12.666 63.5 21.999 91.5l114 -19c-8 -24.667 -14.167 -48.5 -18.5 -71.5s-6.5 -45.167 -6.5 -66.5
c0 -24 1.16699 -45 3.5 -63s6.16602 -34.667 11.499 -50h280c-5.33301 21.333 -9 42.666 -11 63.999s-3 48.666 -3 81.999c0 36 4 67 12 93s21.167 47 39.5 63s42.333 27.667 72 35s66.5 11 110.5 11c43.333 0 82 -2.5 116 -7.5s70 -14.167 108 -27.5v-447h-699z
M586.001 134.002h171c16 0 27 3.16699 33 9.5s9 17.833 9 34.5v167h-170c-16.667 0 -28 -3.16699 -34 -9.5s-9 -18.5 -9 -36.5v-165zM1004 0.00195312v134c6.66699 0 11.667 -6.16699 15 -18.5s5 -28.5 5 -48.5c0 -20.667 -1.66699 -37 -5 -49s-8.33301 -18 -15 -18z
M636.001 587.002c-8.66699 0 -18.4971 4 -29.4971 12s-20.5 17.5 -28.5 28.5s-12 20.833 -12 29.5c0 9.33301 4 19.333 12 30s17.5 20 28.5 28s20.833 12 29.5 12c9.33301 0 19.166 -4 29.499 -12s19.666 -17.333 27.999 -28s12.5 -20.667 12.5 -30
c0 -8 -4.16699 -17.667 -12.5 -29s-17.833 -21 -28.5 -29s-20.334 -12 -29.001 -12zM803.004 587.002c-8.66699 0 -18.4971 4 -29.4971 12s-20.5 17.5 -28.5 28.5s-12 20.833 -12 29.5c0 9.33301 4 19.333 12 30s17.5 20 28.5 28s20.833 12 29.5 12
c9.33301 0 19.166 -4 29.499 -12s19.666 -17.333 27.999 -28s12.5 -20.667 12.5 -30c0 -8 -4.16699 -17.667 -12.5 -29s-17.833 -21 -28.5 -29s-20.334 -12 -29.001 -12zM719.007 764.002c-8.66699 0 -18.4971 4 -29.4971 12s-20.5 17.5 -28.5 28.5s-12 20.833 -12 29.5
c0 9.33301 4 19.333 12 30s17.5 20 28.5 28s20.833 12 29.5 12c9.33301 0 19.166 -4 29.499 -12s19.666 -17.333 27.999 -28s12.5 -20.667 12.5 -30c0 -8 -4.16699 -17.667 -12.5 -29s-17.833 -21 -28.5 -29s-20.334 -12 -29.001 -12z" />
    <glyph glyph-name="uniFB6C" unicode="&#x6a4;" horiz-adv-x="661" arabic-form="initial" 
d="M0 0v134.002h132c-5.33301 21.333 -9.16602 42.666 -11.499 63.999s-3.5 48.666 -3.5 81.999c0 36 4 67 12 93s21 47 39 63s42.167 27.667 72.5 35s67.166 11 110.499 11c42.667 0 81.167 -2.5 115.5 -7.5s70.5 -14.167 108.5 -27.5v-447h-575zM244 134.002h170
c16 0 27 3.16699 33 9.5s9 17.833 9 34.5v169h-170c-16 0 -27 -3.16699 -33 -9.5s-9 -18.5 -9 -36.5v-167zM0 0.00195312c-7.33301 0 -12.5 6 -15.5 18s-4.5 28.333 -4.5 49c0 20 1.5 36.167 4.5 48.5s8.16699 18.5 15.5 18.5v-134zM269 587.002
c-8.66699 0 -18.4971 4 -29.4971 12s-20.5 17.5 -28.5 28.5s-12 20.833 -12 29.5c0 9.33301 4 19.333 12 30s17.5 20 28.5 28s20.833 12 29.5 12c9.33301 0 19.166 -4 29.499 -12s19.666 -17.333 27.999 -28s12.5 -20.667 12.5 -30c0 -8 -4.16699 -17.667 -12.5 -29
s-17.833 -21 -28.5 -29s-20.334 -12 -29.001 -12zM436.003 587.002c-8.66699 0 -18.4971 4 -29.4971 12s-20.5 17.5 -28.5 28.5s-12 20.833 -12 29.5c0 9.33301 4 19.333 12 30s17.5 20 28.5 28s20.833 12 29.5 12c9.33301 0 19.166 -4 29.499 -12
s19.666 -17.333 27.999 -28s12.5 -20.667 12.5 -30c0 -8 -4.16699 -17.667 -12.5 -29s-17.833 -21 -28.5 -29s-20.334 -12 -29.001 -12zM352.006 764.002c-8.66699 0 -18.4971 4 -29.4971 12s-20.5 17.5 -28.5 28.5s-12 20.833 -12 29.5c0 9.33301 4 19.333 12 30
s17.5 20 28.5 28s20.833 12 29.5 12c9.33301 0 19.166 -4 29.499 -12s19.666 -17.333 27.999 -28s12.5 -20.667 12.5 -30c0 -8 -4.16699 -17.667 -12.5 -29s-17.833 -21 -28.5 -29s-20.334 -12 -29.001 -12z" />
    <glyph glyph-name="uniFB6D" unicode="&#x6a4;" horiz-adv-x="661" arabic-form="medial" 
d="M575 1v134h86v-134h-86zM0 0v134.002h132c-5.33301 21.333 -9.16602 42.666 -11.499 63.999s-3.5 48.666 -3.5 81.999c0 36 4 67 12 93s21 47 39 63s42.167 27.667 72.5 35s67.166 11 110.499 11c42.667 0 81.167 -2.5 115.5 -7.5s70.5 -14.167 108.5 -27.5v-447h-575z
M244 134.002h170c16 0 27 3.16699 33 9.5s9 17.833 9 34.5v169h-170c-16 0 -27 -3.16699 -33 -9.5s-9 -18.5 -9 -36.5v-167zM0 0.00195312c-7.33301 0 -12.5 6 -15.5 18s-4.5 28.333 -4.5 49c0 20 1.5 36.167 4.5 48.5s8.16699 18.5 15.5 18.5v-134zM661 0.00195312v134
c6.66699 0 11.667 -6.16699 15 -18.5s5 -28.5 5 -48.5c0 -20.667 -1.66699 -37 -5 -49s-8.33301 -18 -15 -18zM269 587.002c-8.66699 0 -18.4971 4 -29.4971 12s-20.5 17.5 -28.5 28.5s-12 20.833 -12 29.5c0 9.33301 4 19.333 12 30s17.5 20 28.5 28s20.833 12 29.5 12
c9.33301 0 19.166 -4 29.499 -12s19.666 -17.333 27.999 -28s12.5 -20.667 12.5 -30c0 -8 -4.16699 -17.667 -12.5 -29s-17.833 -21 -28.5 -29s-20.334 -12 -29.001 -12zM436.003 587.002c-8.66699 0 -18.4971 4 -29.4971 12s-20.5 17.5 -28.5 28.5s-12 20.833 -12 29.5
c0 9.33301 4 19.333 12 30s17.5 20 28.5 28s20.833 12 29.5 12c9.33301 0 19.166 -4 29.499 -12s19.666 -17.333 27.999 -28s12.5 -20.667 12.5 -30c0 -8 -4.16699 -17.667 -12.5 -29s-17.833 -21 -28.5 -29s-20.334 -12 -29.001 -12zM352.006 764.002
c-8.66699 0 -18.4971 4 -29.4971 12s-20.5 17.5 -28.5 28.5s-12 20.833 -12 29.5c0 9.33301 4 19.333 12 30s17.5 20 28.5 28s20.833 12 29.5 12c9.33301 0 19.166 -4 29.499 -12s19.666 -17.333 27.999 -28s12.5 -20.667 12.5 -30c0 -8 -4.16699 -17.667 -12.5 -29
s-17.833 -21 -28.5 -29s-20.334 -12 -29.001 -12z" />
    <glyph glyph-name="uniFB7B" unicode="&#x686;" horiz-adv-x="721" arabic-form="final" 
d="M227 -285c-48 0 -85.001 8.00098 -111.001 24.001s-44 41.5 -54 76.5s-15 81.5 -15 139.5c0 68.667 15.5 123.667 46.5 165s81.167 71.5 150.5 90.5s160 28.5 272 28.5l56 -104c-94 0 -170.833 -4.33301 -230.5 -13s-103.5 -22.167 -131.5 -40.5s-42 -42.833 -42 -73.5
v-153c8 -2 16.667 -3.5 26 -4.5s19.333 -1.5 30 -1.5c12.667 0 26.334 0.666992 41.001 2s29 3.33301 43 6l15 -127c-17.333 -4.66699 -34 -8.33398 -50 -11.001s-31.333 -4 -46 -4zM653.999 0.000976562c-20.667 0 -37.168 4.5 -49.501 13.5s-22.166 23.167 -29.499 42.5
l-63 165c-12.667 30.667 -27.834 55.334 -45.501 74.001s-39.5 32.167 -65.5 40.5s-58.667 12.5 -98 12.5c-16 0 -32.833 -0.333008 -50.5 -1s-36.167 -2.33398 -55.5 -5.00098l-18 132c25.333 2.66699 48.5 4.66699 69.5 6s40.5 2 58.5 2
c56.667 0 104.834 -7.16699 144.501 -21.5s73 -37 100 -68s49.167 -71.833 66.5 -122.5l51 -136h52l20 -67l-20 -67h-67zM407.998 -220.999c-7.33301 0 -15.668 3.50195 -25.001 10.502s-17.5 15.167 -24.5 24.5s-10.5 17.666 -10.5 24.999c0 8 3.33301 16.667 10 26
s14.834 17.333 24.501 24s18.167 10.334 25.5 11.001c8 -0.666992 16.667 -4.33398 26 -11.001s17.5 -14.667 24.5 -24s10.5 -18 10.5 -26c0 -6.66699 -3.5 -14.834 -10.5 -24.501s-15.333 -18 -25 -25s-18.167 -10.5 -25.5 -10.5zM334.996 -72.9971
c-7.33301 -0.666992 -15.835 2.49707 -25.502 9.49707s-17.834 15.333 -24.501 25s-10 18.167 -10 25.5c0 8 3.33301 16.667 10 26s14.834 17.333 24.501 24s18.167 10 25.5 10c8 0 16.667 -3.33301 26 -10s17.5 -14.667 24.5 -24s10.5 -18 10.5 -26
c0 -7.33301 -3.66699 -15.666 -11 -24.999s-15.666 -17.666 -24.999 -24.999s-17.666 -10.666 -24.999 -9.99902zM481.994 -73c-7.33301 -0.666992 -15.835 2.49707 -25.502 9.49707s-17.834 15.333 -24.501 25s-10 18.167 -10 25.5c0 8 3.33301 16.667 10 26
s14.834 17.333 24.501 24s18.167 10 25.5 10c8 0 16.667 -3.33301 26 -10s17.5 -14.667 24.5 -24s10.5 -18 10.5 -26c0 -7.33301 -3.66699 -15.666 -11 -24.999s-15.666 -17.666 -24.999 -24.999s-17.666 -10.666 -24.999 -9.99902z" />
    <glyph glyph-name="uniFB7C" unicode="&#x686;" horiz-adv-x="572" arabic-form="initial" 
d="M466 165c-20.667 0 -37.168 4.50098 -49.501 13.501s-22.166 23.167 -29.499 42.5c-11.333 30.667 -25.5 55.334 -42.5 74.001s-38.833 32.167 -65.5 40.5s-60 12.5 -100 12.5c-15.333 0 -31.833 -0.333008 -49.5 -1s-36.834 -2.33398 -57.501 -5.00098l-18 132
c24 2.66699 46.5 4.66699 67.5 6s41.167 2 60.5 2c55.333 0 101.833 -6.33301 139.5 -19s69.334 -32.334 95.001 -59.001s47.167 -61.667 64.5 -105h91v-134h-106zM-0.000976562 0.000976562v133.999h160c31.333 0 59 4.5 83 13.5s44.5 20.833 61.5 35.5
s31.5 31.334 43.5 50.001s21.333 38 28 58l111 -40c-14 -42.667 -32 -79.667 -54 -111s-47.667 -57.333 -77 -78s-61.833 -36.167 -97.5 -46.5s-74.167 -15.5 -115.5 -15.5h-143zM-0.000976562 0c-7.33301 0 -12.5 6 -15.5 18s-4.5 28.333 -4.5 49c0 20 1.5 36.167 4.5 48.5
s8.16699 18.5 15.5 18.5v-134zM276.999 -387c-8.66699 0 -18.4971 4 -29.4971 12s-20.5 17.5 -28.5 28.5s-12 20.833 -12 29.5c0 9.33301 4 19.333 12 30s17.5 20 28.5 28s20.833 12 29.5 12c9.33301 0 19.166 -4 29.499 -12s19.666 -17.333 27.999 -28
s12.5 -20.667 12.5 -30c0 -8 -4.16699 -17.667 -12.5 -29s-17.833 -21 -28.5 -29s-20.334 -12 -29.001 -12zM194.002 -220c-8.66699 0 -18.4971 4 -29.4971 12s-20.5 17.5 -28.5 28.5s-12 20.833 -12 29.5c0 9.33301 4 19.333 12 30s17.5 20 28.5 28s20.833 12 29.5 12
c9.33301 0 19.166 -4 29.499 -12s19.666 -17.333 27.999 -28s12.5 -20.667 12.5 -30c0 -8 -4.16699 -17.667 -12.5 -29s-17.833 -21 -28.5 -29s-20.334 -12 -29.001 -12zM361.005 -220c-8.66699 0 -18.4971 4 -29.4971 12s-20.5 17.5 -28.5 28.5s-12 20.833 -12 29.5
c0 9.33301 4 19.333 12 30s17.5 20 28.5 28s20.833 12 29.5 12c9.33301 0 19.166 -4 29.499 -12s19.666 -17.333 27.999 -28s12.5 -20.667 12.5 -30c0 -8 -4.16699 -17.667 -12.5 -29s-17.833 -21 -28.5 -29s-20.334 -12 -29.001 -12z" />
    <glyph glyph-name="uniFB7D" unicode="&#x686;" horiz-adv-x="595" arabic-form="medial" 
d="M530 0c-21.333 0 -38.168 4.5 -50.501 13.5s-22.166 23.167 -29.499 42.5l-63 165c-12 30 -26.667 54.5 -44 73.5s-39 32.667 -65 41s-59 12.5 -99 12.5c-15.333 0 -31.833 -0.333008 -49.5 -1s-36.834 -2.33398 -57.501 -5.00098l-18 132
c24 2.66699 46.5 4.66699 67.5 6s41.167 2 60.5 2c57.333 0 105.833 -7.16699 145.5 -21.5s72.834 -37.166 99.501 -68.499s49 -72 67 -122l50 -136h51v-134h-65zM-0.00195312 0l0.000976562 133.999h190c27.333 0 51.166 4.5 71.499 13.5s38 20.833 53 35.5
s27.5 31.334 37.5 50.001s18 38 24 58l111 -40c-13.333 -42.667 -30 -79.667 -50 -111s-43.833 -57.333 -71.5 -78s-58 -36.167 -91 -46.5s-68.5 -15.5 -106.5 -15.5h-168zM594.999 -0.000976562v134c7.33301 0 12.5 -6.16699 15.5 -18.5s4.5 -28.5 4.5 -48.5
c0 -20.667 -1.5 -37 -4.5 -49s-8.16699 -18 -15.5 -18zM-0.000976562 -0.000976562c-7.33301 0 -12.5 6 -15.5 18s-4.5 28.333 -4.5 49c0 20 1.5 36.167 4.5 48.5s8.16699 18.5 15.5 18.5v-134zM290.999 -387.001c-8.66699 0 -18.4971 4 -29.4971 12s-20.5 17.5 -28.5 28.5
s-12 20.833 -12 29.5c0 9.33301 4 19.333 12 30s17.5 20 28.5 28s20.833 12 29.5 12c9.33301 0 19.166 -4 29.499 -12s19.666 -17.333 27.999 -28s12.5 -20.667 12.5 -30c0 -8 -4.16699 -17.667 -12.5 -29s-17.833 -21 -28.5 -29s-20.334 -12 -29.001 -12zM208.002 -220.001
c-8.66699 0 -18.4971 4 -29.4971 12s-20.5 17.5 -28.5 28.5s-12 20.833 -12 29.5c0 9.33301 4 19.333 12 30s17.5 20 28.5 28s20.833 12 29.5 12c9.33301 0 19.166 -4 29.499 -12s19.666 -17.333 27.999 -28s12.5 -20.667 12.5 -30c0 -8 -4.16699 -17.667 -12.5 -29
s-17.833 -21 -28.5 -29s-20.334 -12 -29.001 -12zM375.005 -220.001c-8.66699 0 -18.4971 4 -29.4971 12s-20.5 17.5 -28.5 28.5s-12 20.833 -12 29.5c0 9.33301 4 19.333 12 30s17.5 20 28.5 28s20.833 12 29.5 12c9.33301 0 19.166 -4 29.499 -12
s19.666 -17.333 27.999 -28s12.5 -20.667 12.5 -30c0 -8 -4.16699 -17.667 -12.5 -29s-17.833 -21 -28.5 -29s-20.334 -12 -29.001 -12z" />
    <glyph glyph-name="uniFB89" unicode="&#x688;" horiz-adv-x="516" arabic-form="final" 
d="M447 0v134h69v-134h-69zM20 0v134.001h314c-12 46 -23.167 83.667 -33.5 113s-21.5 52 -33.5 68s-26.167 27 -42.5 33s-35.833 9 -58.5 9c-16 0 -32.5 -1 -49.5 -3s-32.833 -4.66699 -47.5 -8l-33 129c19.333 5.33301 40.5 9.33301 63.5 12s45.167 4 66.5 4
c36 0 67.167 -2.83301 93.5 -8.5s49.333 -16.167 69 -31.5s37.5 -37.333 53.5 -66s31.333 -65.834 46 -111.501s31 -102.167 49 -169.5v-104h-457zM516 0.000976562v134c7.33301 0 12.5 -6.16699 15.5 -18.5s4.5 -28.5 4.5 -48.5c0 -20.667 -1.5 -37 -4.5 -49
s-8.16699 -18 -15.5 -18zM54 637.001l0.000976562 226h90v-115c10 16.667 25 29.5 45 38.5s42.667 13.5 68 13.5c29.333 0 50.833 -6 64.5 -18s20.5 -33.333 20.5 -64v-81h-89v93c-4.66699 2 -10.334 3.66699 -17.001 5s-13.667 2 -21 2c-25.333 0 -43.5 -8.5 -54.5 -25.5
s-16.5 -41.833 -16.5 -74.5h-90zM24.001 590.001v58h318v-58h-318z" />
    <glyph glyph-name="uniFB8B" unicode="&#x698;" horiz-adv-x="325" arabic-form="final" 
d="M240 0v134h85v-134h-85zM68 -272l-45 106.002c26 12 46.167 25 60.5 39s24.333 32.167 30 54.5s8.5 51.166 8.5 86.499v456h119v-456c0 -50.667 -5.83301 -93.834 -17.5 -129.501s-30 -66.167 -55 -91.5s-58.5 -47 -100.5 -65zM325 0.00195312v134
c6.66699 0 11.667 -6.16699 15 -18.5s5 -28.5 5 -48.5c0 -20.667 -1.66699 -37 -5 -49s-8.33301 -18 -15 -18zM98 587.002c-8.66699 0 -18.4971 4 -29.4971 12s-20.5 17.5 -28.5 28.5s-12 20.833 -12 29.5c0 9.33301 4 19.333 12 30s17.5 20 28.5 28s20.833 12 29.5 12
c9.33301 0 19.166 -4 29.499 -12s19.666 -17.333 27.999 -28s12.5 -20.667 12.5 -30c0 -8 -4.16699 -17.667 -12.5 -29s-17.833 -21 -28.5 -29s-20.334 -12 -29.001 -12zM265.003 587.002c-8.66699 0 -18.4971 4 -29.4971 12s-20.5 17.5 -28.5 28.5s-12 20.833 -12 29.5
c0 9.33301 4 19.333 12 30s17.5 20 28.5 28s20.833 12 29.5 12c9.33301 0 19.166 -4 29.499 -12s19.666 -17.333 27.999 -28s12.5 -20.667 12.5 -30c0 -8 -4.16699 -17.667 -12.5 -29s-17.833 -21 -28.5 -29s-20.334 -12 -29.001 -12zM181.006 764.002
c-8.66699 0 -18.4971 4 -29.4971 12s-20.5 17.5 -28.5 28.5s-12 20.833 -12 29.5c0 9.33301 4 19.333 12 30s17.5 20 28.5 28s20.833 12 29.5 12c9.33301 0 19.166 -4 29.499 -12s19.666 -17.333 27.999 -28s12.5 -20.667 12.5 -30c0 -8 -4.16699 -17.667 -12.5 -29
s-17.833 -21 -28.5 -29s-20.334 -12 -29.001 -12z" />
    <glyph glyph-name="uniFB8D" unicode="&#x691;" horiz-adv-x="325" arabic-form="final" 
d="M240 0v134h85v-134h-85zM68 -272l-45 106.002c26 12 46.167 25 60.5 39s24.333 32.167 30 54.5s8.5 51.166 8.5 86.499v456h119v-456c0 -50.667 -5.83301 -93.834 -17.5 -129.501s-30 -66.167 -55 -91.5s-58.5 -47 -100.5 -65zM325 0.00195312v134
c6.66699 0 11.667 -6.16699 15 -18.5s5 -28.5 5 -48.5c0 -20.667 -1.66699 -37 -5 -49s-8.33301 -18 -15 -18zM40 637.002l0.000976562 226h90v-115c10 16.667 25 29.5 45 38.5s42.667 13.5 68 13.5c29.333 0 50.833 -6 64.5 -18s20.5 -33.333 20.5 -64v-81h-89v93
c-4.66699 2 -10.334 3.66699 -17.001 5s-13.667 2 -21 2c-25.333 0 -43.5 -8.5 -54.5 -25.5s-16.5 -41.833 -16.5 -74.5h-90zM10.001 590.002v58h318v-58h-318z" />
    <glyph glyph-name="uniFB8F" unicode="&#x6a9;" horiz-adv-x="869" arabic-form="final" 
d="M783 0v134h86v-134h-86zM219 0c-37.333 0 -67.6631 7.3291 -90.9961 21.9961s-40.5 37.667 -51.5 69s-16.5 72.333 -16.5 123c0 32.667 2.66699 65.5 8 98.5s12.666 63.5 21.999 91.5l114 -19c-8 -24.667 -14.167 -48.5 -18.5 -71.5s-6.5 -45.167 -6.5 -66.5
c0 -24 1.16699 -45 3.5 -63s6.16602 -34.667 11.499 -50h470v163h-229c-34.667 0 -61.167 9.16699 -79.5 27.5s-27.5 44.5 -27.5 78.5c0 24 3.83301 50.333 11.5 79s18.667 57.834 33 87.501s30.666 58 48.999 85s38.166 50.833 59.499 71.5l97 -52
c-15.333 -16 -30.5 -34 -45.5 -54s-29 -41.167 -42 -63.5s-24 -44.166 -33 -65.499s-15.167 -41.333 -18.5 -60h190c40 0 71.167 -4.66699 93.5 -14s38 -25.166 47 -47.499s13.5 -53.166 13.5 -92.499v-277h-564zM869.003 -0.00390625v134
c6.66699 0 11.667 -6.16699 15 -18.5s5 -28.5 5 -48.5c0 -20.667 -1.66699 -37 -5 -49s-8.33301 -18 -15 -18z" />
    <glyph glyph-name="uniFB90" unicode="&#x6a9;" horiz-adv-x="714" arabic-form="initial" 
d="M0 0l0.00488281 133.996h510v163h-319c-34.667 0 -61.334 9.16699 -80.001 27.5s-28 44.5 -28 78.5c0 24 4 50.333 12 79s19.167 57.834 33.5 87.501s30.666 58 48.999 85s38.166 50.833 59.499 71.5l97 -52c-15.333 -16 -30.5 -34 -45.5 -54s-29 -41.167 -42 -63.5
s-24 -44.166 -33 -65.499s-15.167 -41.333 -18.5 -60h280c39.333 0 70.166 -4.66699 92.499 -14s38.166 -25.166 47.499 -47.499s14 -53.166 14 -92.499v-277h-629zM0.00488281 -0.00390625c-7.33301 0 -12.5 6 -15.5 18s-4.5 28.333 -4.5 49c0 20 1.5 36.167 4.5 48.5
s8.16699 18.5 15.5 18.5v-134z" />
    <glyph glyph-name="uniFB91" unicode="&#x6a9;" horiz-adv-x="714" arabic-form="medial" 
d="M629 0v134h85v-134h-85zM0 0l0.00488281 133.996h510v163h-319c-34.667 0 -61.334 9.16699 -80.001 27.5s-28 44.5 -28 78.5c0 24 4 50.333 12 79s19.167 57.834 33.5 87.501s30.666 58 48.999 85s38.166 50.833 59.499 71.5l97 -52c-15.333 -16 -30.5 -34 -45.5 -54
s-29 -41.167 -42 -63.5s-24 -44.166 -33 -65.499s-15.167 -41.333 -18.5 -60h280c39.333 0 70.166 -4.66699 92.499 -14s38.166 -25.166 47.499 -47.499s14 -53.166 14 -92.499v-277h-629zM0.00488281 -0.00390625c-7.33301 0 -12.5 6 -15.5 18s-4.5 28.333 -4.5 49
c0 20 1.5 36.167 4.5 48.5s8.16699 18.5 15.5 18.5v-134zM714.005 -0.00390625v134c7.33301 0 12.5 -6.16699 15.5 -18.5s4.5 -28.5 4.5 -48.5c0 -20.667 -1.5 -37 -4.5 -49s-8.16699 -18 -15.5 -18z" />
    <glyph glyph-name="uniFB93" unicode="&#x6af;" horiz-adv-x="869" arabic-form="final" 
d="M262 464l-102 34.001c2.66699 23.333 8.5 49 17.5 77s20.167 56.667 33.5 86s28.5 57.166 45.5 83.499s34.833 48.833 53.5 67.5l97 -52c-28 -31.333 -52 -63.833 -72 -97.5s-35.833 -67.167 -47.5 -100.5s-20.167 -66 -25.5 -98zM219 0.000976562
c-37.333 0 -67.6631 7.3291 -90.9961 21.9961s-40.5 37.667 -51.5 69s-16.5 72.333 -16.5 123c0 32.667 2.66699 65.5 8 98.5s12.666 63.5 21.999 91.5l114 -19c-8 -24.667 -14.167 -48.5 -18.5 -71.5s-6.5 -45.167 -6.5 -66.5c0 -24 1.16699 -45 3.5 -63
s6.16602 -34.667 11.499 -50h470v163h-229c-34.667 0 -61.167 9.16699 -79.5 27.5s-27.5 44.5 -27.5 78.5c0 24 3.83301 50.333 11.5 79s18.667 57.834 33 87.501s30.666 58 48.999 85s38.166 50.833 59.499 71.5l97 -52c-15.333 -16 -30.5 -34 -45.5 -54
s-29 -41.167 -42 -63.5s-24 -44.166 -33 -65.499s-15.167 -41.333 -18.5 -60h190c40 0 71.167 -4.66699 93.5 -14s38 -25.166 47 -47.499s13.5 -53.166 13.5 -92.499v-277h-564zM869.003 -0.00292969v134c6.66699 0 11.667 -6.16699 15 -18.5s5 -28.5 5 -48.5
c0 -20.667 -1.66699 -37 -5 -49s-8.33301 -18 -15 -18zM783.003 -0.00292969v134h86v-134h-86z" />
    <glyph glyph-name="uniFB94" unicode="&#x6af;" horiz-adv-x="824" arabic-form="initial" 
d="M145 458l-101.001 34.0029c2.66699 23.333 8.33398 49 17.001 77s19.667 56.667 33 86s28.5 57.166 45.5 83.499s35.167 48.833 54.5 67.5l96 -53c-28 -30.667 -51.833 -62.834 -71.5 -96.501s-35.5 -67.334 -47.5 -101.001s-20.667 -66.167 -26 -97.5z
M-0.000976562 0.00292969l0.000976562 133.996h619v163h-319c-34.667 0 -61.167 9.16699 -79.5 27.5s-27.5 44.5 -27.5 78.5c0 24 4 50.333 12 79s19 57.834 33 87.501s30.333 58 49 85s38.667 50.833 60 71.5l96 -52c-14.667 -16 -29.5 -34 -44.5 -54
s-29 -41.167 -42 -63.5s-24 -44.166 -33 -65.499s-15.5 -41.333 -19.5 -60h280c40 0 71.167 -4.66699 93.5 -14s38.166 -25.166 47.499 -47.499s14 -53.166 14 -92.499v-277h-739zM0 -0.000976562c-7.33301 0 -12.5 6 -15.5 18s-4.5 28.333 -4.5 49
c0 20 1.5 36.167 4.5 48.5s8.16699 18.5 15.5 18.5v-134z" />
    <glyph glyph-name="uniFB95" unicode="&#x6af;" horiz-adv-x="835" arabic-form="medial" 
d="M148 461l-102 34.002c3.33301 23.333 9.33301 49 18 77s19.667 56.667 33 86s28.5 57.166 45.5 83.499s34.833 48.833 53.5 67.5l97 -52c-28 -31.333 -52 -63.833 -72 -97.5s-35.833 -67.334 -47.5 -101.001s-20.167 -66.167 -25.5 -97.5zM0 -0.998047
l0.00292969 133.999h631v163h-319c-34.667 0 -61.334 9.16699 -80.001 27.5s-28 44.5 -28 78.5c0 24 4 50.333 12 79s19 57.667 33 87s30.333 57.666 49 84.999s38.667 51 60 71l97 -52c-15.333 -15.333 -30.5 -33 -45.5 -53s-29 -41.167 -42 -63.5s-24 -44.333 -33 -66
s-15.5 -41.5 -19.5 -59.5h281c39.333 0 70.166 -4.66699 92.499 -14s38.166 -25.166 47.499 -47.499s14 -53.166 14 -92.499v-143h85v-134h-835zM0.00292969 -0.999023c-7.33301 0 -12.5 6 -15.5 18s-4.5 28.333 -4.5 49c0 20 1.5 36.167 4.5 48.5s8.16699 18.5 15.5 18.5
v-134zM835.003 -0.999023v134c7.33301 0 12.5 -6.16699 15.5 -18.5s4.5 -28.5 4.5 -48.5c0 -20.667 -1.5 -37 -4.5 -49s-8.16699 -18 -15.5 -18z" />
    <glyph glyph-name="uniFB9F" unicode="&#x6ba;" horiz-adv-x="672" arabic-form="final" 
d="M587 0v134h85v-134h-85zM317 -240c-51.333 0 -93.501 3.50098 -126.501 10.501s-58.667 19.167 -77 36.5s-31 41.333 -38 72s-10.5 69.667 -10.5 117c0 28 1.16699 56.333 3.5 85s6 56.667 11 84s10.833 53 17.5 77l112 -18c-8 -36.667 -14.167 -72 -18.5 -106
s-6.5 -66.667 -6.5 -98c0 -26.667 0.833008 -49.834 2.5 -69.501s4.5 -38.167 8.5 -55.5h157c40.667 0 70.167 3.5 88.5 10.5s27.5 21.167 27.5 42.5v522h119v-484c0 -44.667 -3.5 -81.667 -10.5 -111s-20 -52.5 -39 -69.5s-46.167 -28.833 -81.5 -35.5
s-81.666 -10 -138.999 -10zM671.999 0.000976562v134c7.33301 0 12.5 -6.16699 15.5 -18.5s4.5 -28.5 4.5 -48.5c0 -20.667 -1.5 -37 -4.5 -49s-8.16699 -18 -15.5 -18z" />
    <glyph glyph-name="uniFBA7" unicode="&#x6c1;" horiz-adv-x="663" arabic-form="final" 
d="M81 0l-0.000976562 325c0 38 7.16699 68.5 21.5 91.5s38.666 39.667 72.999 50s80.833 15.5 139.5 15.5c31.333 0 62.333 -1.16699 93 -3.5s60.334 -5.83301 89.001 -10.5s55.334 -10.334 80.001 -17.001l-15 -128c-22 6 -45.333 10.833 -70 14.5
s-50.167 6.33398 -76.5 8.00098s-53.833 2.5 -82.5 2.5c-24.667 0 -49 -0.5 -73 -1.5s-44 -2.83301 -60 -5.5v-341h-119zM458.999 0v451h118v-317h86v-134h-204zM662.999 0v134c6.66699 0 11.667 -6.16699 15 -18.5s5 -28.5 5 -48.5c0 -20.667 -1.66699 -37 -5 -49
s-8.33301 -18 -15 -18z" />
    <glyph glyph-name="uniFBA8" unicode="&#x6c1;" horiz-adv-x="340" arabic-form="initial" 
d="M0 0v134h198l-63 -63v399h119v-470h-254zM0 0c-7.33301 0 -12.5 6 -15.5 18s-4.5 28.333 -4.5 49c0 20 1.5 36.167 4.5 48.5s8.16699 18.5 15.5 18.5v-134zM200.599 17.7969l53.5986 -16.8008l-20.7988 -85.5986c14.3994 -3.2002 24.666 -9.60059 30.7988 -19.2002
c6.13379 -9.59961 9.2002 -24.7998 9.2002 -45.5996c0 -26.666 -5.06641 -45.0654 -15.2002 -55.1992c-10.1328 -10.1328 -28.5322 -15.1992 -55.1992 -15.1992c-25.5996 0 -43.333 5.06641 -53.1992 15.1992c-9.86621 10.1338 -14.7988 28.5332 -14.7988 55.1992
c0.533203 10.667 1.4668 19.6006 2.7998 26.8008s3.59961 14.7998 6.7998 22.7998s8 18.3994 14.3994 31.1992z" />
    <glyph glyph-name="uniFBA9" unicode="&#x6c1;" horiz-adv-x="676" arabic-form="medial" 
d="M400 -375c-39.333 0 -78.832 3.50098 -118.499 10.501s-77.167 18.167 -112.5 33.5c-12.667 32 -22.834 66.833 -30.501 104.5s-11.5 75.5 -11.5 113.5v113h115v-108c0 -22.667 2 -45.834 6 -69.501s9.33301 -47.167 16 -70.5c41.333 -6.66699 80.333 -10 117 -10
c16 0 32.5 0.666992 49.5 2s30.833 3.33301 41.5 6v266h119v-234c0 -37.333 -5.66699 -67.5 -17 -90.5s-30.833 -39.833 -58.5 -50.5s-66.167 -16 -115.5 -16zM0.000976562 0.000976562v134h242v-134h-242zM472.001 0.000976562v134h205v-134h-205zM0.000976562 0.000976562
c-7.33301 0 -12.5 6 -15.5 18s-4.5 28.333 -4.5 49c0 20 1.5 36.167 4.5 48.5s8.16699 18.5 15.5 18.5v-134zM677.001 0.000976562v134c6.66699 0 11.667 -6.16699 15 -18.5s5 -28.5 5 -48.5c0 -20.667 -1.66699 -37 -5 -49s-8.33301 -18 -15 -18z" />
    <glyph glyph-name="uniFBAB" unicode="&#x6be;" horiz-adv-x="754" arabic-form="final" 
d="M644 0v134h110v-134h-110zM20 0l-0.00195312 134.001h554l-40 159c-10 37.333 -25.667 67.333 -47 90s-51.333 39.167 -90 49.5s-89.334 15.5 -152.001 15.5l7 130c80.667 0 147.334 -7.16699 200.001 -21.5s94.334 -38.833 125.001 -73.5
s53.334 -82.334 68.001 -143.001l59 -236v-104h-684zM188.998 109.001h165v132h-124c-14.667 0 -25.167 -2.66699 -31.5 -8s-9.5 -14 -9.5 -26v-98zM83.998 109.001c0 50.667 2.5 91.167 7.5 121.5s14.167 53.333 27.5 69s32 26 56 31s55.333 7.5 94 7.5
c39.333 0 71.5 -2.5 96.5 -7.5s44.333 -15.333 58 -31s23 -38.667 28 -69s7.5 -70.833 7.5 -121.5h-375zM753.998 0.000976562v134c7.33301 0 12.5 -6.16699 15.5 -18.5s4.5 -28.5 4.5 -48.5c0 -20.667 -1.5 -37 -4.5 -49s-8.16699 -18 -15.5 -18z" />
    <glyph glyph-name="uniFBAC" unicode="&#x6be;" horiz-adv-x="754" arabic-form="initial" 
d="M0 0l-0.00195312 134.001h574l-40 159c-10 37.333 -25.667 67.333 -47 90s-51.333 39.167 -90 49.5s-89.334 15.5 -152.001 15.5l7 130c80.667 0 147.334 -7.16699 200.001 -21.5s94.334 -38.833 125.001 -73.5s53.334 -82.334 68.001 -143.001l59 -236v-104h-704z
M188.998 109.001h165v132h-124c-14.667 0 -25.167 -2.66699 -31.5 -8s-9.5 -14 -9.5 -26v-98zM83.998 109.001c0 50.667 2.5 91.167 7.5 121.5s14.167 53.333 27.5 69s32 26 56 31s55.333 7.5 94 7.5c39.333 0 71.5 -2.5 96.5 -7.5s44.333 -15.333 58 -31s23 -38.667 28 -69
s7.5 -70.833 7.5 -121.5h-375zM-0.00195312 0.000976562c-7.33301 0 -12.5 6 -15.5 18s-4.5 28.333 -4.5 49c0 20 1.5 36.167 4.5 48.5s8.16699 18.5 15.5 18.5v-134z" />
    <glyph glyph-name="uniFBAD" unicode="&#x6be;" horiz-adv-x="754" arabic-form="medial" 
d="M650 0v134h104v-134h-104zM0 0l-0.00195312 134.001h574l-40 159c-10 37.333 -25.667 67.333 -47 90s-51.333 39.167 -90 49.5s-89.334 15.5 -152.001 15.5l7 130c80.667 0 147.334 -7.16699 200.001 -21.5s94.334 -38.833 125.001 -73.5s53.334 -82.334 68.001 -143.001
l59 -236v-104h-704zM188.998 109.001h165v132h-124c-14.667 0 -25.167 -2.66699 -31.5 -8s-9.5 -14 -9.5 -26v-98zM83.998 109.001c0 50.667 2.5 91.167 7.5 121.5s14.167 53.333 27.5 69s32 26 56 31s55.333 7.5 94 7.5c39.333 0 71.5 -2.5 96.5 -7.5
s44.333 -15.333 58 -31s23 -38.667 28 -69s7.5 -70.833 7.5 -121.5h-375zM-0.00195312 0.000976562c-7.33301 0 -12.5 6 -15.5 18s-4.5 28.333 -4.5 49c0 20 1.5 36.167 4.5 48.5s8.16699 18.5 15.5 18.5v-134zM753.998 0.000976562v134c7.33301 0 12.5 -6.16699 15.5 -18.5
s4.5 -28.5 4.5 -48.5c0 -20.667 -1.5 -37 -4.5 -49s-8.16699 -18 -15.5 -18z" />
    <glyph glyph-name="uniFBAF" unicode="&#x6d2;" horiz-adv-x="722" arabic-form="final" 
d="M354 -282c-64 0 -116.501 3.33496 -157.501 10.002s-72.333 18.5 -94 35.5s-36.667 40.333 -45 70s-12.5 67.167 -12.5 112.5v54h119v-95c0 -14.667 6.16699 -25.834 18.5 -33.501s33.166 -12.834 62.499 -15.501s69.333 -4 120 -4c28 0 53.5 0.333008 76.5 1
s45.5 2 67.5 4s45.167 4.5 69.5 7.5s50.833 7.16699 79.5 12.5l19 -127c-31.333 -6.66699 -64.666 -12.5 -99.999 -17.5s-71.666 -8.66699 -108.999 -11s-75.333 -3.5 -114 -3.5zM44.999 0.00195312v134h677v-134h-677zM721.999 0.00195312v134
c6.66699 0 11.667 -6.16699 15 -18.5s5 -28.5 5 -48.5c0 -20.667 -1.66699 -37 -5 -49s-8.33301 -18 -15 -18z" />
    <glyph glyph-name="uniFBB1" unicode="&#x6d3;" horiz-adv-x="722" arabic-form="final" 
d="M354 -282c-64 0 -116.501 3.33496 -157.501 10.002s-72.333 18.5 -94 35.5s-36.667 40.333 -45 70s-12.5 67.167 -12.5 112.5v54h119v-95c0 -14.667 6.16699 -25.834 18.5 -33.501s33.166 -12.834 62.499 -15.501s69.333 -4 120 -4c28 0 53.5 0.333008 76.5 1
s45.5 2 67.5 4s45.167 4.5 69.5 7.5s50.833 7.16699 79.5 12.5l19 -127c-31.333 -6.66699 -64.666 -12.5 -99.999 -17.5s-71.666 -8.66699 -108.999 -11s-75.333 -3.5 -114 -3.5zM44.999 0.00195312v134h677v-134h-677zM721.999 0.00195312v134
c6.66699 0 11.667 -6.16699 15 -18.5s5 -28.5 5 -48.5c0 -20.667 -1.66699 -37 -5 -49s-8.33301 -18 -15 -18zM86.999 273.002l0.00195312 57.999l40 11c-2.66699 8 -4.83398 16.833 -6.50098 26.5s-2.5 21.5 -2.5 35.5c0 36 7.16699 64 21.5 84s34.666 34.5 60.999 43.5
s56.833 14.5 91.5 16.5v-69c-16.667 -1.33301 -33 -3.66602 -49 -6.99902s-31.333 -8.33301 -46 -15v-66c0 -10.667 3 -17.5 9 -20.5s16.333 -2.5 31 1.5l82 22v-60z" />
    <glyph glyph-name="uniFBFD" unicode="&#x6cc;" horiz-adv-x="872" arabic-form="final" 
d="M417 -282c-70 0 -127.832 2.99609 -173.499 8.99609s-81.334 16.833 -107.001 32.5s-44 37.834 -55 66.501s-16.5 65.334 -16.5 110.001c0 24 1.16699 48.833 3.5 74.5s6 50.5 11 74.5s10.833 46.333 17.5 67l116 -19c-8 -30.667 -14.833 -60.167 -20.5 -88.5
s-8.5 -55.833 -8.5 -82.5c0 -23.333 0.833008 -43.5 2.5 -60.5s4.5 -33.5 8.5 -49.5h282c48 0 86 1.33301 114 4s47.833 7.83398 59.5 15.501s17.5 18.834 17.5 33.501v95h119v-61c0 -42.667 -5.5 -78.167 -16.5 -106.5s-30 -50.833 -57 -67.5s-64.667 -28.667 -113 -36
s-109.5 -11 -183.5 -11zM642.001 -0.00390625c-35.333 0 -72.667 2.83301 -112 8.5s-75.333 13.5 -108 23.5l19 127c32.667 -8 63 -14.167 91 -18.5s55.333 -6.5 82 -6.5h258v-134h-230zM872 -0.00390625v134c7.33301 0 12.5 -6.16699 15.5 -18.5s4.5 -28.5 4.5 -48.5
c0 -20.667 -1.5 -37 -4.5 -49s-8.16699 -18 -15.5 -18z" />
    <glyph glyph-name="uniFBFE" unicode="&#x6cc;" horiz-adv-x="340" arabic-form="initial" 
d="M0 0v134h198l-63 -63v399h119v-470h-254zM0 0c-7.33301 0 -12.5 6 -15.5 18s-4.5 28.333 -4.5 49c0 20 1.5 36.167 4.5 48.5s8.16699 18.5 15.5 18.5v-134zM51 -207c-8.66699 0 -18.4971 4 -29.4971 12s-20.5 17.5 -28.5 28.5s-12 20.833 -12 29.5
c0 9.33301 4 19.333 12 30s17.5 20 28.5 28s20.833 12 29.5 12c9.33301 0 19.166 -4 29.499 -12s19.666 -17.333 27.999 -28s12.5 -20.667 12.5 -30c0 -8 -4.16699 -17.667 -12.5 -29s-17.833 -21 -28.5 -29s-20.334 -12 -29.001 -12zM218.003 -207
c-8.66699 0 -18.4971 4 -29.4971 12s-20.5 17.5 -28.5 28.5s-12 20.833 -12 29.5c0 9.33301 4 19.333 12 30s17.5 20 28.5 28s20.833 12 29.5 12c9.33301 0 19.166 -4 29.499 -12s19.666 -17.333 27.999 -28s12.5 -20.667 12.5 -30c0 -8 -4.16699 -17.667 -12.5 -29
s-17.833 -21 -28.5 -29s-20.334 -12 -29.001 -12z" />
    <glyph glyph-name="uniFBFF" unicode="&#x6cc;" horiz-adv-x="340" arabic-form="medial" 
d="M254 0v134h86v-134h-86zM0 0v134h198l-63 -63v399h119v-470h-254zM0 0c-7.33301 0 -12.5 6 -15.5 18s-4.5 28.333 -4.5 49c0 20 1.5 36.167 4.5 48.5s8.16699 18.5 15.5 18.5v-134zM340 0v134c6.66699 0 11.667 -6.16699 15 -18.5s5 -28.5 5 -48.5
c0 -20.667 -1.66699 -37 -5 -49s-8.33301 -18 -15 -18zM110 -220c-8.66699 0 -18.4971 4 -29.4971 12s-20.5 17.5 -28.5 28.5s-12 20.833 -12 29.5c0 9.33301 4 19.333 12 30s17.5 20 28.5 28s20.833 12 29.5 12c9.33301 0 19.166 -4 29.499 -12s19.666 -17.333 27.999 -28
s12.5 -20.667 12.5 -30c0 -8 -4.16699 -17.667 -12.5 -29s-17.833 -21 -28.5 -29s-20.334 -12 -29.001 -12zM277.003 -220c-8.66699 0 -18.4971 4 -29.4971 12s-20.5 17.5 -28.5 28.5s-12 20.833 -12 29.5c0 9.33301 4 19.333 12 30s17.5 20 28.5 28s20.833 12 29.5 12
c9.33301 0 19.166 -4 29.499 -12s19.666 -17.333 27.999 -28s12.5 -20.667 12.5 -30c0 -8 -4.16699 -17.667 -12.5 -29s-17.833 -21 -28.5 -29s-20.334 -12 -29.001 -12z" />
    <glyph glyph-name="uniFE82" unicode="&#x622;" horiz-adv-x="290" arabic-form="final" 
d="M85 0v470h120v-336h85v-134h-205zM290 0v134c6.66699 0 11.667 -6.16699 15 -18.5s5 -28.5 5 -48.5c0 -20.667 -1.66699 -37 -5 -49s-8.33301 -18 -15 -18zM158 562c-10 0 -19 2.66699 -27 8s-19.333 16.333 -34 33l-64 -30l-20 36c25.333 19.333 45.333 34 60 44
s26.334 16.667 35.001 20s16 5 22 5c6.66699 0 12.5 -1 17.5 -3s10.833 -6 17.5 -12s15 -14.667 25 -26l65 30l20 -36c-24 -18.667 -43.5 -33 -58.5 -43s-26.833 -16.833 -35.5 -20.5s-16.334 -5.5 -23.001 -5.5z" />
    <glyph glyph-name="uniFE84" unicode="&#x623;" horiz-adv-x="290" arabic-form="final" 
d="M85 0v470h120v-336h85v-134h-205zM290 0v134c6.66699 0 11.667 -6.16699 15 -18.5s5 -28.5 5 -48.5c0 -20.667 -1.66699 -37 -5 -49s-8.33301 -18 -15 -18zM29 532l0.00195312 57.999l40 11c-2.66699 8 -4.83398 16.833 -6.50098 26.5s-2.5 21.5 -2.5 35.5
c0 36 7.16699 64 21.5 84s34.666 34.5 60.999 43.5s56.833 14.5 91.5 16.5v-69c-16.667 -1.33301 -33 -3.66602 -49 -6.99902s-31.333 -8.33301 -46 -15v-66c0 -10.667 3 -17.5 9 -20.5s16.333 -2.5 31 1.5l82 22v-60z" />
    <glyph glyph-name="uniFE86" unicode="&#x624;" horiz-adv-x="622" arabic-form="final" 
d="M477 0v134h145v-134h-145zM250 0c-33.333 0 -61.6689 4.16797 -85.002 12.501s-42.166 22 -56.499 41s-24.666 44.333 -30.999 76s-9.5 70.167 -9.5 115.5c0 44.667 4.16699 82.167 12.5 112.5s21.5 54.666 39.5 72.999s42 31.5 72 39.5s66.667 12 110 12
c47.333 0 88 -2.5 122 -7.5s68.333 -14.167 103 -27.5v-313l-64 -134h-213zM308.997 -274.999l-77.999 90c25.333 20 48.666 43.167 69.999 69.5s40 53.833 56 82.5s28.333 57.167 37 85.5s13 55.5 13 81.5h120c0 -34 -5.5 -69.667 -16.5 -107s-26.167 -74 -45.5 -110
s-42.333 -70.5 -69 -103.5s-55.667 -62.5 -87 -88.5zM194.998 134.001h170c16 0 27 3.16699 33 9.5s9 17.833 9 34.5v170h-160c-20.667 0 -34.5 -3.16699 -41.5 -9.5s-10.5 -18.5 -10.5 -36.5v-168zM621.998 0.000976562v134c6.66699 0 11.667 -6.16699 15 -18.5
s5 -28.5 5 -48.5c0 -20.667 -1.66699 -37 -5 -49s-8.33301 -18 -15 -18zM185.998 577.001l0.00195312 57.999l40 11c-2.66699 8 -4.83398 16.833 -6.50098 26.5s-2.5 21.5 -2.5 35.5c0 36 7.16699 64 21.5 84s34.666 34.5 60.999 43.5s56.833 14.5 91.5 16.5v-69
c-16.667 -1.33301 -33 -3.66602 -49 -6.99902s-31.333 -8.33301 -46 -15v-66c0 -10.667 3 -17.5 9 -20.5s16.333 -2.5 31 1.5l82 22v-60z" />
    <glyph glyph-name="uniFE88" unicode="&#x625;" horiz-adv-x="290" arabic-form="final" 
d="M85 0v630h120v-496h85v-134h-205zM290 0v134c6.66699 0 11.667 -6.16699 15 -18.5s5 -28.5 5 -48.5c0 -20.667 -1.66699 -37 -5 -49s-8.33301 -18 -15 -18zM29 -352l0.00195312 57.999l40 11c-2.66699 8 -4.83398 16.833 -6.50098 26.5s-2.5 21.5 -2.5 35.5
c0 36 7.16699 64 21.5 84s34.666 34.5 60.999 43.5s56.833 14.5 91.5 16.5v-69c-16.667 -1.33301 -33 -3.66602 -49 -6.99902s-31.333 -8.33301 -46 -15v-66c0 -10.667 3 -17.5 9 -20.5s16.333 -2.5 31 1.5l82 22v-60z" />
    <glyph glyph-name="uniFE8A" unicode="&#x626;" horiz-adv-x="872" arabic-form="final" 
d="M417 -282c-70 0 -127.832 2.99609 -173.499 8.99609s-81.334 16.833 -107.001 32.5s-44 37.834 -55 66.501s-16.5 65.334 -16.5 110.001c0 24 1.16699 48.833 3.5 74.5s6 50.5 11 74.5s10.833 46.333 17.5 67l116 -19c-8 -30.667 -14.833 -60.167 -20.5 -88.5
s-8.5 -55.833 -8.5 -82.5c0 -23.333 0.833008 -43.5 2.5 -60.5s4.5 -33.5 8.5 -49.5h282c48 0 86 1.33301 114 4s47.833 7.83398 59.5 15.501s17.5 18.834 17.5 33.501v95h119v-61c0 -42.667 -5.5 -78.167 -16.5 -106.5s-30 -50.833 -57 -67.5s-64.667 -28.667 -113 -36
s-109.5 -11 -183.5 -11zM642.001 -0.00390625c-35.333 0 -72.667 2.83301 -112 8.5s-75.333 13.5 -108 23.5l19 127c32.667 -8 63 -14.167 91 -18.5s55.333 -6.5 82 -6.5h258v-134h-230zM872 -0.00390625v134c7.33301 0 12.5 -6.16699 15.5 -18.5s4.5 -28.5 4.5 -48.5
c0 -20.667 -1.5 -37 -4.5 -49s-8.16699 -18 -15.5 -18zM62 266.996l0.00195312 57.999l40 11c-2.66699 8 -4.83398 16.833 -6.50098 26.5s-2.5 21.5 -2.5 35.5c0 36 7.16699 64 21.5 84s34.666 34.5 60.999 43.5s56.833 14.5 91.5 16.5v-69
c-16.667 -1.33301 -33 -3.66602 -49 -6.99902s-31.333 -8.33301 -46 -15v-66c0 -10.667 3 -17.5 9 -20.5s16.333 -2.5 31 1.5l82 22v-60z" />
    <glyph glyph-name="uniFE8B" unicode="&#x626;" horiz-adv-x="340" arabic-form="initial" 
d="M0 0v134h198l-63 -63v399h119v-470h-254zM0 0c-7.33301 0 -12.5 6 -15.5 18s-4.5 28.333 -4.5 49c0 20 1.5 36.167 4.5 48.5s8.16699 18.5 15.5 18.5v-134zM79 577l0.00195312 57.999l40 11c-2.66699 8 -4.83398 16.833 -6.50098 26.5s-2.5 21.5 -2.5 35.5
c0 36 7.16699 64 21.5 84s34.666 34.5 60.999 43.5s56.833 14.5 91.5 16.5v-69c-16.667 -1.33301 -33 -3.66602 -49 -6.99902s-31.333 -8.33301 -46 -15v-66c0 -10.667 3 -17.5 9 -20.5s16.333 -2.5 31 1.5l82 22v-60z" />
    <glyph glyph-name="uniFE8C" unicode="&#x626;" horiz-adv-x="340" arabic-form="medial" 
d="M254 0v134h86v-134h-86zM0 0v134h198l-63 -63v399h119v-470h-254zM0 0c-7.33301 0 -12.5 6 -15.5 18s-4.5 28.333 -4.5 49c0 20 1.5 36.167 4.5 48.5s8.16699 18.5 15.5 18.5v-134zM340 0v134c6.66699 0 11.667 -6.16699 15 -18.5s5 -28.5 5 -48.5
c0 -20.667 -1.66699 -37 -5 -49s-8.33301 -18 -15 -18zM79 577l0.00195312 57.999l40 11c-2.66699 8 -4.83398 16.833 -6.50098 26.5s-2.5 21.5 -2.5 35.5c0 36 7.16699 64 21.5 84s34.666 34.5 60.999 43.5s56.833 14.5 91.5 16.5v-69
c-16.667 -1.33301 -33 -3.66602 -49 -6.99902s-31.333 -8.33301 -46 -15v-66c0 -10.667 3 -17.5 9 -20.5s16.333 -2.5 31 1.5l82 22v-60z" />
    <glyph glyph-name="uniFE8E" unicode="&#x627;" horiz-adv-x="290" arabic-form="final" 
d="M85 0v630h120v-496h85v-134h-205zM290 0v134c6.66699 0 11.667 -6.16699 15 -18.5s5 -28.5 5 -48.5c0 -20.667 -1.66699 -37 -5 -49s-8.33301 -18 -15 -18z" />
    <glyph glyph-name="uniFE90" unicode="&#x628;" horiz-adv-x="904" arabic-form="final" 
d="M818 0v134h86v-134h-86zM219 0c-37.333 0 -67.665 7.33301 -90.998 22s-40.5 37.667 -51.5 69s-16.5 72.333 -16.5 123c0 32.667 2.66699 65.5 8 98.5s12.666 63.5 21.999 91.5l114 -19c-8 -24.667 -14.167 -48.5 -18.5 -71.5s-6.5 -45.167 -6.5 -66.5
c0 -24 1.16699 -45 3.5 -63s6.16602 -34.667 11.499 -50h505v336h119v-470h-599zM904.001 0v134c6.66699 0 11.667 -6.16699 15 -18.5s5 -28.5 5 -48.5c0 -20.667 -1.66699 -37 -5 -49s-8.33301 -18 -15 -18zM449.001 -225c-8.66699 0 -18.4971 4 -29.4971 12
s-20.5 17.5 -28.5 28.5s-12 20.833 -12 29.5c0 9.33301 4 19.333 12 30s17.5 20 28.5 28s20.833 12 29.5 12c9.33301 0 19.166 -4 29.499 -12s19.666 -17.333 27.999 -28s12.5 -20.667 12.5 -30c0 -8 -4.16699 -17.667 -12.5 -29s-17.833 -21 -28.5 -29
s-20.334 -12 -29.001 -12z" />
    <glyph glyph-name="uniFE91" unicode="&#x628;" horiz-adv-x="340" arabic-form="initial" 
d="M0 0v134h198l-63 -63v399h119v-470h-254zM0 0c-7.33301 0 -12.5 6 -15.5 18s-4.5 28.333 -4.5 49c0 20 1.5 36.167 4.5 48.5s8.16699 18.5 15.5 18.5v-134zM195 -220c-8.66699 0 -18.4971 4 -29.4971 12s-20.5 17.5 -28.5 28.5s-12 20.833 -12 29.5
c0 9.33301 4 19.333 12 30s17.5 20 28.5 28s20.833 12 29.5 12c9.33301 0 19.166 -4 29.499 -12s19.666 -17.333 27.999 -28s12.5 -20.667 12.5 -30c0 -8 -4.16699 -17.667 -12.5 -29s-17.833 -21 -28.5 -29s-20.334 -12 -29.001 -12z" />
    <glyph glyph-name="uniFE92" unicode="&#x628;" horiz-adv-x="340" arabic-form="medial" 
d="M254 0v134h86v-134h-86zM0 0v134h198l-63 -63v399h119v-470h-254zM0 0c-7.33301 0 -12.5 6 -15.5 18s-4.5 28.333 -4.5 49c0 20 1.5 36.167 4.5 48.5s8.16699 18.5 15.5 18.5v-134zM340 0v134c6.66699 0 11.667 -6.16699 15 -18.5s5 -28.5 5 -48.5
c0 -20.667 -1.66699 -37 -5 -49s-8.33301 -18 -15 -18zM195 -220c-8.66699 0 -18.4971 4 -29.4971 12s-20.5 17.5 -28.5 28.5s-12 20.833 -12 29.5c0 9.33301 4 19.333 12 30s17.5 20 28.5 28s20.833 12 29.5 12c9.33301 0 19.166 -4 29.499 -12s19.666 -17.333 27.999 -28
s12.5 -20.667 12.5 -30c0 -8 -4.16699 -17.667 -12.5 -29s-17.833 -21 -28.5 -29s-20.334 -12 -29.001 -12z" />
    <glyph glyph-name="uniFE94" unicode="&#x629;" horiz-adv-x="632" arabic-form="final" 
d="M549 0v134h83v-134h-83zM295 0c-45.333 0 -82.666 3.16504 -111.999 9.49805s-52 18 -68 35s-27 40.833 -33 71.5s-9 70.334 -9 119.001s3 88.334 9 119.001s17 54.5 33 71.5s38.667 28.667 68 35s66.666 9.5 111.999 9.5h257v-470h-257zM252 133.998h180v202h-180
c-18 0 -31.333 -3.5 -40 -10.5s-13 -18.167 -13 -33.5v-114c0 -15.333 4.33301 -26.5 13 -33.5s22 -10.5 40 -10.5zM632 -0.00195312v134c6.66699 0 11.667 -6.16699 15 -18.5s5 -28.5 5 -48.5c0 -20.667 -1.66699 -37 -5 -49s-8.33301 -18 -15 -18zM244 586.998
c-8.66699 0 -18.4971 4 -29.4971 12s-20.5 17.5 -28.5 28.5s-12 20.833 -12 29.5c0 9.33301 4 19.333 12 30s17.5 20 28.5 28s20.833 12 29.5 12c9.33301 0 19.166 -4 29.499 -12s19.666 -17.333 27.999 -28s12.5 -20.667 12.5 -30c0 -8 -4.16699 -17.667 -12.5 -29
s-17.833 -21 -28.5 -29s-20.334 -12 -29.001 -12zM411.003 586.998c-8.66699 0 -18.4971 4 -29.4971 12s-20.5 17.5 -28.5 28.5s-12 20.833 -12 29.5c0 9.33301 4 19.333 12 30s17.5 20 28.5 28s20.833 12 29.5 12c9.33301 0 19.166 -4 29.499 -12
s19.666 -17.333 27.999 -28s12.5 -20.667 12.5 -30c0 -8 -4.16699 -17.667 -12.5 -29s-17.833 -21 -28.5 -29s-20.334 -12 -29.001 -12z" />
    <glyph glyph-name="uniFE96" unicode="&#x62a;" horiz-adv-x="904" arabic-form="final" 
d="M818 0v134h86v-134h-86zM219 0c-37.333 0 -67.665 7.33301 -90.998 22s-40.5 37.667 -51.5 69s-16.5 72.333 -16.5 123c0 32.667 2.66699 65.5 8 98.5s12.666 63.5 21.999 91.5l114 -19c-8 -24.667 -14.167 -48.5 -18.5 -71.5s-6.5 -45.167 -6.5 -66.5
c0 -24 1.16699 -45 3.5 -63s6.16602 -34.667 11.499 -50h505v336h119v-470h-599zM904.001 0v134c6.66699 0 11.667 -6.16699 15 -18.5s5 -28.5 5 -48.5c0 -20.667 -1.66699 -37 -5 -49s-8.33301 -18 -15 -18zM366.001 487c-8.66699 0 -18.4971 4 -29.4971 12
s-20.5 17.5 -28.5 28.5s-12 20.833 -12 29.5c0 9.33301 4 19.333 12 30s17.5 20 28.5 28s20.833 12 29.5 12c9.33301 0 19.166 -4 29.499 -12s19.666 -17.333 27.999 -28s12.5 -20.667 12.5 -30c0 -8 -4.16699 -17.667 -12.5 -29s-17.833 -21 -28.5 -29
s-20.334 -12 -29.001 -12zM533.004 487c-8.66699 0 -18.4971 4 -29.4971 12s-20.5 17.5 -28.5 28.5s-12 20.833 -12 29.5c0 9.33301 4 19.333 12 30s17.5 20 28.5 28s20.833 12 29.5 12c9.33301 0 19.166 -4 29.499 -12s19.666 -17.333 27.999 -28s12.5 -20.667 12.5 -30
c0 -8 -4.16699 -17.667 -12.5 -29s-17.833 -21 -28.5 -29s-20.334 -12 -29.001 -12z" />
    <glyph glyph-name="uniFE97" unicode="&#x62a;" horiz-adv-x="340" arabic-form="initial" 
d="M0 0v134h198l-63 -63v399h119v-470h-254zM0 0c-7.33301 0 -12.5 6 -15.5 18s-4.5 28.333 -4.5 49c0 20 1.5 36.167 4.5 48.5s8.16699 18.5 15.5 18.5v-134zM112 587c-8.66699 0 -18.4971 4 -29.4971 12s-20.5 17.5 -28.5 28.5s-12 20.833 -12 29.5
c0 9.33301 4 19.333 12 30s17.5 20 28.5 28s20.833 12 29.5 12c9.33301 0 19.166 -4 29.499 -12s19.666 -17.333 27.999 -28s12.5 -20.667 12.5 -30c0 -8 -4.16699 -17.667 -12.5 -29s-17.833 -21 -28.5 -29s-20.334 -12 -29.001 -12zM279.003 587
c-8.66699 0 -18.4971 4 -29.4971 12s-20.5 17.5 -28.5 28.5s-12 20.833 -12 29.5c0 9.33301 4 19.333 12 30s17.5 20 28.5 28s20.833 12 29.5 12c9.33301 0 19.166 -4 29.499 -12s19.666 -17.333 27.999 -28s12.5 -20.667 12.5 -30c0 -8 -4.16699 -17.667 -12.5 -29
s-17.833 -21 -28.5 -29s-20.334 -12 -29.001 -12z" />
    <glyph glyph-name="uniFE98" unicode="&#x62a;" horiz-adv-x="340" arabic-form="medial" 
d="M254 0v134h86v-134h-86zM0 0v134h198l-63 -63v399h119v-470h-254zM0 0c-7.33301 0 -12.5 6 -15.5 18s-4.5 28.333 -4.5 49c0 20 1.5 36.167 4.5 48.5s8.16699 18.5 15.5 18.5v-134zM340 0v134c6.66699 0 11.667 -6.16699 15 -18.5s5 -28.5 5 -48.5
c0 -20.667 -1.66699 -37 -5 -49s-8.33301 -18 -15 -18zM112 587c-8.66699 0 -18.4971 4 -29.4971 12s-20.5 17.5 -28.5 28.5s-12 20.833 -12 29.5c0 9.33301 4 19.333 12 30s17.5 20 28.5 28s20.833 12 29.5 12c9.33301 0 19.166 -4 29.499 -12s19.666 -17.333 27.999 -28
s12.5 -20.667 12.5 -30c0 -8 -4.16699 -17.667 -12.5 -29s-17.833 -21 -28.5 -29s-20.334 -12 -29.001 -12zM279.003 587c-8.66699 0 -18.4971 4 -29.4971 12s-20.5 17.5 -28.5 28.5s-12 20.833 -12 29.5c0 9.33301 4 19.333 12 30s17.5 20 28.5 28s20.833 12 29.5 12
c9.33301 0 19.166 -4 29.499 -12s19.666 -17.333 27.999 -28s12.5 -20.667 12.5 -30c0 -8 -4.16699 -17.667 -12.5 -29s-17.833 -21 -28.5 -29s-20.334 -12 -29.001 -12z" />
    <glyph glyph-name="uniFE9A" unicode="&#x62b;" horiz-adv-x="904" arabic-form="final" 
d="M818 0v134h86v-134h-86zM219 0c-37.333 0 -67.665 7.33301 -90.998 22s-40.5 37.667 -51.5 69s-16.5 72.333 -16.5 123c0 32.667 2.66699 65.5 8 98.5s12.666 63.5 21.999 91.5l114 -19c-8 -24.667 -14.167 -48.5 -18.5 -71.5s-6.5 -45.167 -6.5 -66.5
c0 -24 1.16699 -45 3.5 -63s6.16602 -34.667 11.499 -50h505v336h119v-470h-599zM904.001 0v134c6.66699 0 11.667 -6.16699 15 -18.5s5 -28.5 5 -48.5c0 -20.667 -1.66699 -37 -5 -49s-8.33301 -18 -15 -18zM366.001 487c-8.66699 0 -18.4971 4 -29.4971 12
s-20.5 17.5 -28.5 28.5s-12 20.833 -12 29.5c0 9.33301 4 19.333 12 30s17.5 20 28.5 28s20.833 12 29.5 12c9.33301 0 19.166 -4 29.499 -12s19.666 -17.333 27.999 -28s12.5 -20.667 12.5 -30c0 -8 -4.16699 -17.667 -12.5 -29s-17.833 -21 -28.5 -29
s-20.334 -12 -29.001 -12zM533.004 487c-8.66699 0 -18.4971 4 -29.4971 12s-20.5 17.5 -28.5 28.5s-12 20.833 -12 29.5c0 9.33301 4 19.333 12 30s17.5 20 28.5 28s20.833 12 29.5 12c9.33301 0 19.166 -4 29.499 -12s19.666 -17.333 27.999 -28s12.5 -20.667 12.5 -30
c0 -8 -4.16699 -17.667 -12.5 -29s-17.833 -21 -28.5 -29s-20.334 -12 -29.001 -12zM449.007 664c-8.66699 0 -18.4971 4 -29.4971 12s-20.5 17.5 -28.5 28.5s-12 20.833 -12 29.5c0 9.33301 4 19.333 12 30s17.5 20 28.5 28s20.833 12 29.5 12
c9.33301 0 19.166 -4 29.499 -12s19.666 -17.333 27.999 -28s12.5 -20.667 12.5 -30c0 -8 -4.16699 -17.667 -12.5 -29s-17.833 -21 -28.5 -29s-20.334 -12 -29.001 -12z" />
    <glyph glyph-name="uniFE9B" unicode="&#x62b;" horiz-adv-x="340" arabic-form="initial" 
d="M0 0v134h198l-63 -63v399h119v-470h-254zM0 0c-7.33301 0 -12.5 6 -15.5 18s-4.5 28.333 -4.5 49c0 20 1.5 36.167 4.5 48.5s8.16699 18.5 15.5 18.5v-134zM112 587c-8.66699 0 -18.4971 4 -29.4971 12s-20.5 17.5 -28.5 28.5s-12 20.833 -12 29.5
c0 9.33301 4 19.333 12 30s17.5 20 28.5 28s20.833 12 29.5 12c9.33301 0 19.166 -4 29.499 -12s19.666 -17.333 27.999 -28s12.5 -20.667 12.5 -30c0 -8 -4.16699 -17.667 -12.5 -29s-17.833 -21 -28.5 -29s-20.334 -12 -29.001 -12zM279.003 587
c-8.66699 0 -18.4971 4 -29.4971 12s-20.5 17.5 -28.5 28.5s-12 20.833 -12 29.5c0 9.33301 4 19.333 12 30s17.5 20 28.5 28s20.833 12 29.5 12c9.33301 0 19.166 -4 29.499 -12s19.666 -17.333 27.999 -28s12.5 -20.667 12.5 -30c0 -8 -4.16699 -17.667 -12.5 -29
s-17.833 -21 -28.5 -29s-20.334 -12 -29.001 -12zM195.006 764c-8.66699 0 -18.4971 4 -29.4971 12s-20.5 17.5 -28.5 28.5s-12 20.833 -12 29.5c0 9.33301 4 19.333 12 30s17.5 20 28.5 28s20.833 12 29.5 12c9.33301 0 19.166 -4 29.499 -12s19.666 -17.333 27.999 -28
s12.5 -20.667 12.5 -30c0 -8 -4.16699 -17.667 -12.5 -29s-17.833 -21 -28.5 -29s-20.334 -12 -29.001 -12z" />
    <glyph glyph-name="uniFE9C" unicode="&#x62b;" horiz-adv-x="340" arabic-form="medial" 
d="M254 0v134h86v-134h-86zM0 0v134h198l-63 -63v399h119v-470h-254zM0 0c-7.33301 0 -12.5 6 -15.5 18s-4.5 28.333 -4.5 49c0 20 1.5 36.167 4.5 48.5s8.16699 18.5 15.5 18.5v-134zM340 0v134c6.66699 0 11.667 -6.16699 15 -18.5s5 -28.5 5 -48.5
c0 -20.667 -1.66699 -37 -5 -49s-8.33301 -18 -15 -18zM112 587c-8.66699 0 -18.4971 4 -29.4971 12s-20.5 17.5 -28.5 28.5s-12 20.833 -12 29.5c0 9.33301 4 19.333 12 30s17.5 20 28.5 28s20.833 12 29.5 12c9.33301 0 19.166 -4 29.499 -12s19.666 -17.333 27.999 -28
s12.5 -20.667 12.5 -30c0 -8 -4.16699 -17.667 -12.5 -29s-17.833 -21 -28.5 -29s-20.334 -12 -29.001 -12zM279.003 587c-8.66699 0 -18.4971 4 -29.4971 12s-20.5 17.5 -28.5 28.5s-12 20.833 -12 29.5c0 9.33301 4 19.333 12 30s17.5 20 28.5 28s20.833 12 29.5 12
c9.33301 0 19.166 -4 29.499 -12s19.666 -17.333 27.999 -28s12.5 -20.667 12.5 -30c0 -8 -4.16699 -17.667 -12.5 -29s-17.833 -21 -28.5 -29s-20.334 -12 -29.001 -12zM195.006 764c-8.66699 0 -18.4971 4 -29.4971 12s-20.5 17.5 -28.5 28.5s-12 20.833 -12 29.5
c0 9.33301 4 19.333 12 30s17.5 20 28.5 28s20.833 12 29.5 12c9.33301 0 19.166 -4 29.499 -12s19.666 -17.333 27.999 -28s12.5 -20.667 12.5 -30c0 -8 -4.16699 -17.667 -12.5 -29s-17.833 -21 -28.5 -29s-20.334 -12 -29.001 -12z" />
    <glyph glyph-name="uniFE9E" unicode="&#x62c;" horiz-adv-x="597" arabic-form="final" 
d="M530 0c-21.333 0 -38.168 4.5 -50.501 13.5s-22.166 23.167 -29.499 42.5l-63 165c-12 30.667 -26.833 55.334 -44.5 74.001s-39.667 32.167 -66 40.5s-58.833 12.5 -97.5 12.5c-16.667 0 -33.834 -0.333008 -51.501 -1s-36.167 -2.33398 -55.5 -5.00098l-18 132
c26 2.66699 49.333 4.66699 70 6s40 2 58 2c56.667 0 104.834 -7.16699 144.501 -21.5s73 -37 100 -68s49.5 -71.833 67.5 -122.5l50 -136h53v-134h-67zM258.998 -287c-41.333 0 -75.8311 4.33301 -103.498 13s-49.667 22.5 -66 41.5s-27.833 44 -34.5 75
s-10 68.5 -10 112.5c0 69.333 14.5 125 43.5 167s73.5 73.333 133.5 94s136 32.667 228 36l34 -104c-70 -2.66699 -128.167 -9 -174.5 -19s-81 -24.667 -104 -44s-34.5 -45 -34.5 -77v-153c16.667 -2.66699 35 -4.66699 55 -6s42.333 -2 67 -2c30 0 59 1.83301 87 5.5
s59 9.5 93 17.5l15 -127c-30.667 -10 -65.834 -17.5 -105.501 -22.5s-80.834 -7.5 -123.501 -7.5zM597 0v134c6.66699 0 11.667 -6.16699 15 -18.5s5 -28.5 5 -48.5c0 -20.667 -1.66699 -37 -5 -49s-8.33301 -18 -15 -18zM335.141 -39.1182
c-9.27344 0 -19.7949 4.2793 -31.5654 12.8398c-11.7705 8.55957 -21.9355 18.7246 -30.4951 30.4951c-8.55957 11.7695 -12.8398 22.291 -12.8398 31.5645c0 9.9873 4.28027 20.6875 12.8398 32.1006s18.7246 21.3994 30.4951 29.959
c11.7705 8.56055 22.292 12.8408 31.5654 12.8408c9.9873 0 20.5088 -4.28027 31.5654 -12.8408c11.0566 -8.55957 21.043 -18.5459 29.96 -29.959s13.375 -22.1133 13.375 -32.1006c0 -8.55957 -4.45801 -18.9033 -13.375 -31.0303
c-8.91699 -12.126 -19.082 -22.4688 -30.4951 -31.0283c-11.4131 -8.56055 -21.7568 -12.8408 -31.0303 -12.8408z" />
    <glyph glyph-name="uniFE9F" unicode="&#x62c;" horiz-adv-x="572" arabic-form="initial" 
d="M466 165c-20.667 0 -37.168 4.50098 -49.501 13.501s-22.166 23.167 -29.499 42.5c-11.333 30.667 -25.5 55.334 -42.5 74.001s-38.833 32.167 -65.5 40.5s-60 12.5 -100 12.5c-15.333 0 -31.833 -0.333008 -49.5 -1s-36.834 -2.33398 -57.501 -5.00098l-18 132
c24 2.66699 46.5 4.66699 67.5 6s41.167 2 60.5 2c55.333 0 101.833 -6.33301 139.5 -19s69.334 -32.334 95.001 -59.001s47.167 -61.667 64.5 -105h91v-134h-106zM-0.000976562 0.000976562v133.999h160c31.333 0 59 4.5 83 13.5s44.5 20.833 61.5 35.5
s31.5 31.334 43.5 50.001s21.333 38 28 58l111 -40c-14 -42.667 -32 -79.667 -54 -111s-47.667 -57.333 -77 -78s-61.833 -36.167 -97.5 -46.5s-74.167 -15.5 -115.5 -15.5h-143zM-0.000976562 0c-7.33301 0 -12.5 6 -15.5 18s-4.5 28.333 -4.5 49c0 20 1.5 36.167 4.5 48.5
s8.16699 18.5 15.5 18.5v-134zM276.999 -220c-8.66699 0 -18.4971 4 -29.4971 12s-20.5 17.5 -28.5 28.5s-12 20.833 -12 29.5c0 9.33301 4 19.333 12 30s17.5 20 28.5 28s20.833 12 29.5 12c9.33301 0 19.166 -4 29.499 -12s19.666 -17.333 27.999 -28
s12.5 -20.667 12.5 -30c0 -8 -4.16699 -17.667 -12.5 -29s-17.833 -21 -28.5 -29s-20.334 -12 -29.001 -12z" />
    <glyph glyph-name="uniFEA0" unicode="&#x62c;" horiz-adv-x="595" arabic-form="medial" 
d="M530 0c-21.333 0 -38.168 4.5 -50.501 13.5s-22.166 23.167 -29.499 42.5l-63 165c-12 30 -26.667 54.5 -44 73.5s-39 32.667 -65 41s-59 12.5 -99 12.5c-15.333 0 -31.833 -0.333008 -49.5 -1s-36.834 -2.33398 -57.501 -5.00098l-18 132
c24 2.66699 46.5 4.66699 67.5 6s41.167 2 60.5 2c57.333 0 105.833 -7.16699 145.5 -21.5s72.834 -37.166 99.501 -68.499s49 -72 67 -122l50 -136h51v-134h-65zM-0.00195312 0l0.000976562 133.999h190c27.333 0 51.166 4.5 71.499 13.5s38 20.833 53 35.5
s27.5 31.334 37.5 50.001s18 38 24 58l111 -40c-13.333 -42.667 -30 -79.667 -50 -111s-43.833 -57.333 -71.5 -78s-58 -36.167 -91 -46.5s-68.5 -15.5 -106.5 -15.5h-168zM594.999 -0.000976562v134c7.33301 0 12.5 -6.16699 15.5 -18.5s4.5 -28.5 4.5 -48.5
c0 -20.667 -1.5 -37 -4.5 -49s-8.16699 -18 -15.5 -18zM-0.000976562 -0.000976562c-7.33301 0 -12.5 6 -15.5 18s-4.5 28.333 -4.5 49c0 20 1.5 36.167 4.5 48.5s8.16699 18.5 15.5 18.5v-134zM291.999 -220.001c-8.66699 0 -18.4971 4 -29.4971 12s-20.5 17.5 -28.5 28.5
s-12 20.833 -12 29.5c0 9.33301 4 19.333 12 30s17.5 20 28.5 28s20.833 12 29.5 12c9.33301 0 19.166 -4 29.499 -12s19.666 -17.333 27.999 -28s12.5 -20.667 12.5 -30c0 -8 -4.16699 -17.667 -12.5 -29s-17.833 -21 -28.5 -29s-20.334 -12 -29.001 -12z" />
    <glyph glyph-name="uniFEA2" unicode="&#x62d;" horiz-adv-x="597" arabic-form="final" 
d="M530 0c-21.333 0 -38.168 4.5 -50.501 13.5s-22.166 23.167 -29.499 42.5l-63 165c-12 30.667 -26.833 55.334 -44.5 74.001s-39.667 32.167 -66 40.5s-58.833 12.5 -97.5 12.5c-16.667 0 -33.834 -0.333008 -51.501 -1s-36.167 -2.33398 -55.5 -5.00098l-18 132
c26 2.66699 49.333 4.66699 70 6s40 2 58 2c56.667 0 104.834 -7.16699 144.501 -21.5s73 -37 100 -68s49.5 -71.833 67.5 -122.5l50 -136h53v-134h-67zM258.998 -287c-41.333 0 -75.8311 4.33301 -103.498 13s-49.667 22.5 -66 41.5s-27.833 44 -34.5 75
s-10 68.5 -10 112.5c0 69.333 14.5 125 43.5 167s73.5 73.333 133.5 94s136 32.667 228 36l34 -104c-70 -2.66699 -128.167 -9 -174.5 -19s-81 -24.667 -104 -44s-34.5 -45 -34.5 -77v-153c16.667 -2.66699 35 -4.66699 55 -6s42.333 -2 67 -2c30 0 59 1.83301 87 5.5
s59 9.5 93 17.5l15 -127c-30.667 -10 -65.834 -17.5 -105.501 -22.5s-80.834 -7.5 -123.501 -7.5zM597 0v134c6.66699 0 11.667 -6.16699 15 -18.5s5 -28.5 5 -48.5c0 -20.667 -1.66699 -37 -5 -49s-8.33301 -18 -15 -18z" />
    <glyph glyph-name="uniFEA3" unicode="&#x62d;" horiz-adv-x="572" arabic-form="initial" 
d="M466 165c-20.667 0 -37.168 4.50098 -49.501 13.501s-22.166 23.167 -29.499 42.5c-11.333 30.667 -25.5 55.334 -42.5 74.001s-38.833 32.167 -65.5 40.5s-60 12.5 -100 12.5c-15.333 0 -31.833 -0.333008 -49.5 -1s-36.834 -2.33398 -57.501 -5.00098l-18 132
c24 2.66699 46.5 4.66699 67.5 6s41.167 2 60.5 2c55.333 0 101.833 -6.33301 139.5 -19s69.334 -32.334 95.001 -59.001s47.167 -61.667 64.5 -105h91v-134h-106zM-0.000976562 0.000976562v133.999h160c31.333 0 59 4.5 83 13.5s44.5 20.833 61.5 35.5
s31.5 31.334 43.5 50.001s21.333 38 28 58l111 -40c-14 -42.667 -32 -79.667 -54 -111s-47.667 -57.333 -77 -78s-61.833 -36.167 -97.5 -46.5s-74.167 -15.5 -115.5 -15.5h-143zM-0.000976562 0c-7.33301 0 -12.5 6 -15.5 18s-4.5 28.333 -4.5 49c0 20 1.5 36.167 4.5 48.5
s8.16699 18.5 15.5 18.5v-134z" />
    <glyph glyph-name="uniFEA4" unicode="&#x62d;" horiz-adv-x="595" arabic-form="medial" 
d="M530 0c-21.333 0 -38.168 4.5 -50.501 13.5s-22.166 23.167 -29.499 42.5l-63 165c-12 30 -26.667 54.5 -44 73.5s-39 32.667 -65 41s-59 12.5 -99 12.5c-15.333 0 -31.833 -0.333008 -49.5 -1s-36.834 -2.33398 -57.501 -5.00098l-18 132
c24 2.66699 46.5 4.66699 67.5 6s41.167 2 60.5 2c57.333 0 105.833 -7.16699 145.5 -21.5s72.834 -37.166 99.501 -68.499s49 -72 67 -122l50 -136h51v-134h-65zM-0.00195312 0l0.000976562 133.999h190c27.333 0 51.166 4.5 71.499 13.5s38 20.833 53 35.5
s27.5 31.334 37.5 50.001s18 38 24 58l111 -40c-13.333 -42.667 -30 -79.667 -50 -111s-43.833 -57.333 -71.5 -78s-58 -36.167 -91 -46.5s-68.5 -15.5 -106.5 -15.5h-168zM594.999 -0.000976562v134c7.33301 0 12.5 -6.16699 15.5 -18.5s4.5 -28.5 4.5 -48.5
c0 -20.667 -1.5 -37 -4.5 -49s-8.16699 -18 -15.5 -18zM-0.000976562 -0.000976562c-7.33301 0 -12.5 6 -15.5 18s-4.5 28.333 -4.5 49c0 20 1.5 36.167 4.5 48.5s8.16699 18.5 15.5 18.5v-134z" />
    <glyph glyph-name="uniFEA6" unicode="&#x62e;" horiz-adv-x="597" arabic-form="final" 
d="M530 0c-21.333 0 -38.168 4.5 -50.501 13.5s-22.166 23.167 -29.499 42.5l-63 165c-12 30.667 -26.833 55.334 -44.5 74.001s-39.667 32.167 -66 40.5s-58.833 12.5 -97.5 12.5c-16.667 0 -33.834 -0.333008 -51.501 -1s-36.167 -2.33398 -55.5 -5.00098l-18 132
c26 2.66699 49.333 4.66699 70 6s40 2 58 2c56.667 0 104.834 -7.16699 144.501 -21.5s73 -37 100 -68s49.5 -71.833 67.5 -122.5l50 -136h53v-134h-67zM258.998 -287c-41.333 0 -75.8311 4.33301 -103.498 13s-49.667 22.5 -66 41.5s-27.833 44 -34.5 75
s-10 68.5 -10 112.5c0 69.333 14.5 125 43.5 167s73.5 73.333 133.5 94s136 32.667 228 36l34 -104c-70 -2.66699 -128.167 -9 -174.5 -19s-81 -24.667 -104 -44s-34.5 -45 -34.5 -77v-153c16.667 -2.66699 35 -4.66699 55 -6s42.333 -2 67 -2c30 0 59 1.83301 87 5.5
s59 9.5 93 17.5l15 -127c-30.667 -10 -65.834 -17.5 -105.501 -22.5s-80.834 -7.5 -123.501 -7.5zM597 0v134c6.66699 0 11.667 -6.16699 15 -18.5s5 -28.5 5 -48.5c0 -20.667 -1.66699 -37 -5 -49s-8.33301 -18 -15 -18zM289 587c-8.66699 0 -18.4971 4 -29.4971 12
s-20.5 17.5 -28.5 28.5s-12 20.833 -12 29.5c0 9.33301 4 19.333 12 30s17.5 20 28.5 28s20.833 12 29.5 12c9.33301 0 19.166 -4 29.499 -12s19.666 -17.333 27.999 -28s12.5 -20.667 12.5 -30c0 -8 -4.16699 -17.667 -12.5 -29s-17.833 -21 -28.5 -29
s-20.334 -12 -29.001 -12z" />
    <glyph glyph-name="uniFEA7" unicode="&#x62e;" horiz-adv-x="572" arabic-form="initial" 
d="M466 165c-20.667 0 -37.168 4.50098 -49.501 13.501s-22.166 23.167 -29.499 42.5c-11.333 30.667 -25.5 55.334 -42.5 74.001s-38.833 32.167 -65.5 40.5s-60 12.5 -100 12.5c-15.333 0 -31.833 -0.333008 -49.5 -1s-36.834 -2.33398 -57.501 -5.00098l-18 132
c24 2.66699 46.5 4.66699 67.5 6s41.167 2 60.5 2c55.333 0 101.833 -6.33301 139.5 -19s69.334 -32.334 95.001 -59.001s47.167 -61.667 64.5 -105h91v-134h-106zM-0.000976562 0.000976562v133.999h160c31.333 0 59 4.5 83 13.5s44.5 20.833 61.5 35.5
s31.5 31.334 43.5 50.001s21.333 38 28 58l111 -40c-14 -42.667 -32 -79.667 -54 -111s-47.667 -57.333 -77 -78s-61.833 -36.167 -97.5 -46.5s-74.167 -15.5 -115.5 -15.5h-143zM-0.000976562 0c-7.33301 0 -12.5 6 -15.5 18s-4.5 28.333 -4.5 49c0 20 1.5 36.167 4.5 48.5
s8.16699 18.5 15.5 18.5v-134zM263.999 587c-8.66699 0 -18.4971 4 -29.4971 12s-20.5 17.5 -28.5 28.5s-12 20.833 -12 29.5c0 9.33301 4 19.333 12 30s17.5 20 28.5 28s20.833 12 29.5 12c9.33301 0 19.166 -4 29.499 -12s19.666 -17.333 27.999 -28
s12.5 -20.667 12.5 -30c0 -8 -4.16699 -17.667 -12.5 -29s-17.833 -21 -28.5 -29s-20.334 -12 -29.001 -12z" />
    <glyph glyph-name="uniFEA8" unicode="&#x62e;" horiz-adv-x="595" arabic-form="medial" 
d="M530 0c-21.333 0 -38.168 4.5 -50.501 13.5s-22.166 23.167 -29.499 42.5l-63 165c-12 30 -26.667 54.5 -44 73.5s-39 32.667 -65 41s-59 12.5 -99 12.5c-15.333 0 -31.833 -0.333008 -49.5 -1s-36.834 -2.33398 -57.501 -5.00098l-18 132
c24 2.66699 46.5 4.66699 67.5 6s41.167 2 60.5 2c57.333 0 105.833 -7.16699 145.5 -21.5s72.834 -37.166 99.501 -68.499s49 -72 67 -122l50 -136h51v-134h-65zM-0.00195312 0l0.000976562 133.999h190c27.333 0 51.166 4.5 71.499 13.5s38 20.833 53 35.5
s27.5 31.334 37.5 50.001s18 38 24 58l111 -40c-13.333 -42.667 -30 -79.667 -50 -111s-43.833 -57.333 -71.5 -78s-58 -36.167 -91 -46.5s-68.5 -15.5 -106.5 -15.5h-168zM594.999 -0.000976562v134c7.33301 0 12.5 -6.16699 15.5 -18.5s4.5 -28.5 4.5 -48.5
c0 -20.667 -1.5 -37 -4.5 -49s-8.16699 -18 -15.5 -18zM-0.000976562 -0.000976562c-7.33301 0 -12.5 6 -15.5 18s-4.5 28.333 -4.5 49c0 20 1.5 36.167 4.5 48.5s8.16699 18.5 15.5 18.5v-134zM263.999 586.999c-8.66699 0 -18.4971 4 -29.4971 12s-20.5 17.5 -28.5 28.5
s-12 20.833 -12 29.5c0 9.33301 4 19.333 12 30s17.5 20 28.5 28s20.833 12 29.5 12c9.33301 0 19.166 -4 29.499 -12s19.666 -17.333 27.999 -28s12.5 -20.667 12.5 -30c0 -8 -4.16699 -17.667 -12.5 -29s-17.833 -21 -28.5 -29s-20.334 -12 -29.001 -12z" />
    <glyph glyph-name="uniFEAA" unicode="&#x62f;" horiz-adv-x="516" arabic-form="final" 
d="M447 0v134h69v-134h-69zM20 0v134.001h314c-12 46 -23.167 83.667 -33.5 113s-21.5 52 -33.5 68s-26.167 27 -42.5 33s-35.833 9 -58.5 9c-16 0 -32.5 -1 -49.5 -3s-32.833 -4.66699 -47.5 -8l-33 129c19.333 5.33301 40.5 9.33301 63.5 12s45.167 4 66.5 4
c36 0 67.167 -2.83301 93.5 -8.5s49.333 -16.167 69 -31.5s37.5 -37.333 53.5 -66s31.333 -65.834 46 -111.501s31 -102.167 49 -169.5v-104h-457zM516 0.000976562v134c7.33301 0 12.5 -6.16699 15.5 -18.5s4.5 -28.5 4.5 -48.5c0 -20.667 -1.5 -37 -4.5 -49
s-8.16699 -18 -15.5 -18z" />
    <glyph glyph-name="uniFEAC" unicode="&#x630;" horiz-adv-x="516" arabic-form="final" 
d="M447 0v134h69v-134h-69zM20 0v134.001h314c-12 46 -23.167 83.667 -33.5 113s-21.5 52 -33.5 68s-26.167 27 -42.5 33s-35.833 9 -58.5 9c-16 0 -32.5 -1 -49.5 -3s-32.833 -4.66699 -47.5 -8l-33 129c19.333 5.33301 40.5 9.33301 63.5 12s45.167 4 66.5 4
c36 0 67.167 -2.83301 93.5 -8.5s49.333 -16.167 69 -31.5s37.5 -37.333 53.5 -66s31.333 -65.834 46 -111.501s31 -102.167 49 -169.5v-104h-457zM516 0.000976562v134c7.33301 0 12.5 -6.16699 15.5 -18.5s4.5 -28.5 4.5 -48.5c0 -20.667 -1.5 -37 -4.5 -49
s-8.16699 -18 -15.5 -18zM195 587.001c-8.66699 0 -18.4971 4 -29.4971 12s-20.5 17.5 -28.5 28.5s-12 20.833 -12 29.5c0 9.33301 4 19.333 12 30s17.5 20 28.5 28s20.833 12 29.5 12c9.33301 0 19.166 -4 29.499 -12s19.666 -17.333 27.999 -28s12.5 -20.667 12.5 -30
c0 -8 -4.16699 -17.667 -12.5 -29s-17.833 -21 -28.5 -29s-20.334 -12 -29.001 -12z" />
    <glyph glyph-name="uniFEAE" unicode="&#x631;" horiz-adv-x="325" arabic-form="final" 
d="M240 0v134h85v-134h-85zM68 -272l-45 106.002c26 12 46.167 25 60.5 39s24.333 32.167 30 54.5s8.5 51.166 8.5 86.499v456h119v-456c0 -50.667 -5.83301 -93.834 -17.5 -129.501s-30 -66.167 -55 -91.5s-58.5 -47 -100.5 -65zM325 0.00195312v134
c6.66699 0 11.667 -6.16699 15 -18.5s5 -28.5 5 -48.5c0 -20.667 -1.66699 -37 -5 -49s-8.33301 -18 -15 -18z" />
    <glyph glyph-name="uniFEB0" unicode="&#x632;" horiz-adv-x="325" arabic-form="final" 
d="M240 0v134h85v-134h-85zM68 -272l-45 106.002c26 12 46.167 25 60.5 39s24.333 32.167 30 54.5s8.5 51.166 8.5 86.499v456h119v-456c0 -50.667 -5.83301 -93.834 -17.5 -129.501s-30 -66.167 -55 -91.5s-58.5 -47 -100.5 -65zM325 0.00195312v134
c6.66699 0 11.667 -6.16699 15 -18.5s5 -28.5 5 -48.5c0 -20.667 -1.66699 -37 -5 -49s-8.33301 -18 -15 -18zM181 587.002c-8.66699 0 -18.4971 4 -29.4971 12s-20.5 17.5 -28.5 28.5s-12 20.833 -12 29.5c0 9.33301 4 19.333 12 30s17.5 20 28.5 28s20.833 12 29.5 12
c9.33301 0 19.166 -4 29.499 -12s19.666 -17.333 27.999 -28s12.5 -20.667 12.5 -30c0 -8 -4.16699 -17.667 -12.5 -29s-17.833 -21 -28.5 -29s-20.334 -12 -29.001 -12z" />
    <glyph glyph-name="uniFEB2" unicode="&#x633;" horiz-adv-x="1328" arabic-form="final" 
d="M1021 0l144 134h163v-134h-307zM317 -240c-52.667 0 -95.501 3.5 -128.501 10.5s-58.5 19.167 -76.5 36.5s-30.333 41.333 -37 72s-10 69.667 -10 117c0 24.667 1 49.667 3 75s5.33301 50 10 74s10 46.333 16 67l119 -18c-8.66699 -31.333 -15.667 -61.5 -21 -90.5
s-8 -56.833 -8 -83.5s0.833008 -49.667 2.5 -69s4.5 -38.333 8.5 -57h157c40.667 0 70.167 3.5 88.5 10.5s27.5 21.167 27.5 42.5v433h119v-394c0 -44.667 -3.5 -81.667 -10.5 -111s-20 -52.5 -39 -69.5s-46.167 -28.833 -81.5 -35.5s-81.666 -10 -138.999 -10zM586.999 0
l-0.000976562 134h133c25.333 0 44.333 3.5 57 10.5s19 21.167 19 42.5v193h119v-157c0 -44.667 -3.16699 -81.5 -9.5 -110.5s-17.833 -51.667 -34.5 -68s-40.667 -27.833 -72 -34.5s-72.666 -10 -123.999 -10h-88zM1021 0c-46.667 0 -84.668 3.33008 -114.001 9.99707
s-52.166 18.167 -68.499 34.5s-27.5 39 -33.5 68s-9 65.833 -9 110.5v157h119v-193c0 -21.333 6.33301 -35.5 19 -42.5s31.667 -10.5 57 -10.5h122c4 16.667 6.83301 34.834 8.5 54.501s2.5 42.5 2.5 68.5c0 30.667 -2.5 62.167 -7.5 94.5s-11.833 65.5 -20.5 99.5l119 18
c6 -19.333 11.167 -40.666 15.5 -63.999s7.5 -47.333 9.5 -72s3 -48 3 -70c0 -68 -7.33301 -121.167 -22 -159.5s-38.5 -65.166 -71.5 -80.499s-75.833 -23 -128.5 -23zM1328 -0.00292969v134c7.33301 0 12.5 -6.16699 15.5 -18.5s4.5 -28.5 4.5 -48.5
c0 -20.667 -1.5 -37 -4.5 -49s-8.16699 -18 -15.5 -18z" />
    <glyph glyph-name="uniFEB3" unicode="&#x633;" horiz-adv-x="988" arabic-form="initial" 
d="M688 0c-46.667 0 -84.666 3.33008 -113.999 9.99707s-52 18.167 -68 34.5s-27.167 39 -33.5 68s-9.5 65.833 -9.5 110.5v157h119v-193c0 -21.333 6.33301 -35.5 19 -42.5s31.667 -10.5 57 -10.5h123c3.33301 16.667 5.83301 34.834 7.5 54.501s2.5 42.5 2.5 68.5
c0 30.667 -2.5 62.167 -7.5 94.5s-11.5 65.5 -19.5 99.5l118 18c6 -19.333 11.167 -40.666 15.5 -63.999s7.5 -47.333 9.5 -72s3 -48 3 -70c0 -68 -7.33301 -121.167 -22 -159.5s-38.334 -65.166 -71.001 -80.499s-75.667 -23 -129 -23zM0.000976562 -0.00292969v134h135
v246h119v-380h-254zM254.001 -0.00292969v134h133c26 0 45.167 3.5 57.5 10.5s18.5 21.167 18.5 42.5v193h119v-157c0 -44.667 -3.16699 -81.5 -9.5 -110.5s-17.666 -51.667 -33.999 -68s-40.333 -27.833 -72 -34.5s-72.834 -10 -123.501 -10h-89zM0.000976562 -0.00292969
c-7.33301 0 -12.5 6 -15.5 18s-4.5 28.333 -4.5 49c0 20 1.5 36.167 4.5 48.5s8.16699 18.5 15.5 18.5v-134z" />
    <glyph glyph-name="uniFEB4" unicode="&#x633;" horiz-adv-x="995" arabic-form="medial" 
d="M683 0l150 134h162v-134h-312zM688 0c-46.667 0 -84.666 3.33008 -113.999 9.99707s-52 18.167 -68 34.5s-27.167 39 -33.5 68s-9.5 65.833 -9.5 110.5v157h119v-193c0 -21.333 6.33301 -35.5 19 -42.5s31.667 -10.5 57 -10.5h123
c3.33301 16.667 5.83301 34.834 7.5 54.501s2.5 42.5 2.5 68.5c0 30.667 -2.5 62.167 -7.5 94.5s-11.5 65.5 -19.5 99.5l118 18c6 -19.333 11.167 -40.666 15.5 -63.999s7.5 -47.333 9.5 -72s3 -48 3 -70c0 -68 -7.33301 -121.167 -22 -159.5
s-38.334 -65.166 -71.001 -80.499s-75.667 -23 -129 -23zM0.000976562 -0.00292969v134h135v246h119v-380h-254zM254.001 -0.00292969v134h133c26 0 45.167 3.5 57.5 10.5s18.5 21.167 18.5 42.5v193h119v-157c0 -44.667 -3.16699 -81.5 -9.5 -110.5
s-17.666 -51.667 -33.999 -68s-40.333 -27.833 -72 -34.5s-72.834 -10 -123.501 -10h-89zM0.000976562 -0.00292969c-7.33301 0 -12.5 6 -15.5 18s-4.5 28.333 -4.5 49c0 20 1.5 36.167 4.5 48.5s8.16699 18.5 15.5 18.5v-134zM995.001 -0.00292969v134
c7.33301 0 12.5 -6.16699 15.5 -18.5s4.5 -28.5 4.5 -48.5c0 -20.667 -1.5 -37 -4.5 -49s-8.16699 -18 -15.5 -18z" />
    <glyph glyph-name="uniFEB6" unicode="&#x634;" horiz-adv-x="1328" arabic-form="final" 
d="M1021 0l144 134h163v-134h-307zM317 -240c-52.667 0 -95.501 3.5 -128.501 10.5s-58.5 19.167 -76.5 36.5s-30.333 41.333 -37 72s-10 69.667 -10 117c0 24.667 1 49.667 3 75s5.33301 50 10 74s10 46.333 16 67l119 -18c-8.66699 -31.333 -15.667 -61.5 -21 -90.5
s-8 -56.833 -8 -83.5s0.833008 -49.667 2.5 -69s4.5 -38.333 8.5 -57h157c40.667 0 70.167 3.5 88.5 10.5s27.5 21.167 27.5 42.5v433h119v-394c0 -44.667 -3.5 -81.667 -10.5 -111s-20 -52.5 -39 -69.5s-46.167 -28.833 -81.5 -35.5s-81.666 -10 -138.999 -10zM586.999 0
l-0.000976562 134h133c25.333 0 44.333 3.5 57 10.5s19 21.167 19 42.5v193h119v-157c0 -44.667 -3.16699 -81.5 -9.5 -110.5s-17.833 -51.667 -34.5 -68s-40.667 -27.833 -72 -34.5s-72.666 -10 -123.999 -10h-88zM1021 0c-46.667 0 -84.668 3.33008 -114.001 9.99707
s-52.166 18.167 -68.499 34.5s-27.5 39 -33.5 68s-9 65.833 -9 110.5v157h119v-193c0 -21.333 6.33301 -35.5 19 -42.5s31.667 -10.5 57 -10.5h122c4 16.667 6.83301 34.834 8.5 54.501s2.5 42.5 2.5 68.5c0 30.667 -2.5 62.167 -7.5 94.5s-11.833 65.5 -20.5 99.5l119 18
c6 -19.333 11.167 -40.666 15.5 -63.999s7.5 -47.333 9.5 -72s3 -48 3 -70c0 -68 -7.33301 -121.167 -22 -159.5s-38.5 -65.166 -71.5 -80.499s-75.833 -23 -128.5 -23zM1328 -0.00292969v134c7.33301 0 12.5 -6.16699 15.5 -18.5s4.5 -28.5 4.5 -48.5
c0 -20.667 -1.5 -37 -4.5 -49s-8.16699 -18 -15.5 -18zM777.997 536.997c-8.66699 0 -18.4971 4 -29.4971 12s-20.5 17.5 -28.5 28.5s-12 20.833 -12 29.5c0 9.33301 4 19.333 12 30s17.5 20 28.5 28s20.833 12 29.5 12c9.33301 0 19.166 -4 29.499 -12
s19.666 -17.333 27.999 -28s12.5 -20.667 12.5 -30c0 -8 -4.16699 -17.667 -12.5 -29s-17.833 -21 -28.5 -29s-20.334 -12 -29.001 -12zM945 536.997c-8.66699 0 -18.4971 4 -29.4971 12s-20.5 17.5 -28.5 28.5s-12 20.833 -12 29.5c0 9.33301 4 19.333 12 30
s17.5 20 28.5 28s20.833 12 29.5 12c9.33301 0 19.166 -4 29.499 -12s19.666 -17.333 27.999 -28s12.5 -20.667 12.5 -30c0 -8 -4.16699 -17.667 -12.5 -29s-17.833 -21 -28.5 -29s-20.334 -12 -29.001 -12zM861.003 713.997c-8.66699 0 -18.4971 4 -29.4971 12
s-20.5 17.5 -28.5 28.5s-12 20.833 -12 29.5c0 9.33301 4 19.333 12 30s17.5 20 28.5 28s20.833 12 29.5 12c9.33301 0 19.166 -4 29.499 -12s19.666 -17.333 27.999 -28s12.5 -20.667 12.5 -30c0 -8 -4.16699 -17.667 -12.5 -29s-17.833 -21 -28.5 -29
s-20.334 -12 -29.001 -12z" />
    <glyph glyph-name="uniFEB7" unicode="&#x634;" horiz-adv-x="988" arabic-form="initial" 
d="M688 0c-46.667 0 -84.666 3.33008 -113.999 9.99707s-52 18.167 -68 34.5s-27.167 39 -33.5 68s-9.5 65.833 -9.5 110.5v157h119v-193c0 -21.333 6.33301 -35.5 19 -42.5s31.667 -10.5 57 -10.5h123c3.33301 16.667 5.83301 34.834 7.5 54.501s2.5 42.5 2.5 68.5
c0 30.667 -2.5 62.167 -7.5 94.5s-11.5 65.5 -19.5 99.5l118 18c6 -19.333 11.167 -40.666 15.5 -63.999s7.5 -47.333 9.5 -72s3 -48 3 -70c0 -68 -7.33301 -121.167 -22 -159.5s-38.334 -65.166 -71.001 -80.499s-75.667 -23 -129 -23zM0.000976562 -0.00292969v134h135
v246h119v-380h-254zM254.001 -0.00292969v134h133c26 0 45.167 3.5 57.5 10.5s18.5 21.167 18.5 42.5v193h119v-157c0 -44.667 -3.16699 -81.5 -9.5 -110.5s-17.666 -51.667 -33.999 -68s-40.333 -27.833 -72 -34.5s-72.834 -10 -123.501 -10h-89zM0.000976562 -0.00292969
c-7.33301 0 -12.5 6 -15.5 18s-4.5 28.333 -4.5 49c0 20 1.5 36.167 4.5 48.5s8.16699 18.5 15.5 18.5v-134zM445.001 536.997c-8.66699 0 -18.4971 4 -29.4971 12s-20.5 17.5 -28.5 28.5s-12 20.833 -12 29.5c0 9.33301 4 19.333 12 30s17.5 20 28.5 28s20.833 12 29.5 12
c9.33301 0 19.166 -4 29.499 -12s19.666 -17.333 27.999 -28s12.5 -20.667 12.5 -30c0 -8 -4.16699 -17.667 -12.5 -29s-17.833 -21 -28.5 -29s-20.334 -12 -29.001 -12zM612.004 536.997c-8.66699 0 -18.4971 4 -29.4971 12s-20.5 17.5 -28.5 28.5s-12 20.833 -12 29.5
c0 9.33301 4 19.333 12 30s17.5 20 28.5 28s20.833 12 29.5 12c9.33301 0 19.166 -4 29.499 -12s19.666 -17.333 27.999 -28s12.5 -20.667 12.5 -30c0 -8 -4.16699 -17.667 -12.5 -29s-17.833 -21 -28.5 -29s-20.334 -12 -29.001 -12zM528.007 713.997
c-8.66699 0 -18.4971 4 -29.4971 12s-20.5 17.5 -28.5 28.5s-12 20.833 -12 29.5c0 9.33301 4 19.333 12 30s17.5 20 28.5 28s20.833 12 29.5 12c9.33301 0 19.166 -4 29.499 -12s19.666 -17.333 27.999 -28s12.5 -20.667 12.5 -30c0 -8 -4.16699 -17.667 -12.5 -29
s-17.833 -21 -28.5 -29s-20.334 -12 -29.001 -12z" />
    <glyph glyph-name="uniFEB8" unicode="&#x634;" horiz-adv-x="995" arabic-form="medial" 
d="M683 0l150 134h162v-134h-312zM688 0c-46.667 0 -84.666 3.33008 -113.999 9.99707s-52 18.167 -68 34.5s-27.167 39 -33.5 68s-9.5 65.833 -9.5 110.5v157h119v-193c0 -21.333 6.33301 -35.5 19 -42.5s31.667 -10.5 57 -10.5h123
c3.33301 16.667 5.83301 34.834 7.5 54.501s2.5 42.5 2.5 68.5c0 30.667 -2.5 62.167 -7.5 94.5s-11.5 65.5 -19.5 99.5l118 18c6 -19.333 11.167 -40.666 15.5 -63.999s7.5 -47.333 9.5 -72s3 -48 3 -70c0 -68 -7.33301 -121.167 -22 -159.5
s-38.334 -65.166 -71.001 -80.499s-75.667 -23 -129 -23zM0.000976562 -0.00292969v134h135v246h119v-380h-254zM254.001 -0.00292969v134h133c26 0 45.167 3.5 57.5 10.5s18.5 21.167 18.5 42.5v193h119v-157c0 -44.667 -3.16699 -81.5 -9.5 -110.5
s-17.666 -51.667 -33.999 -68s-40.333 -27.833 -72 -34.5s-72.834 -10 -123.501 -10h-89zM0.000976562 -0.00292969c-7.33301 0 -12.5 6 -15.5 18s-4.5 28.333 -4.5 49c0 20 1.5 36.167 4.5 48.5s8.16699 18.5 15.5 18.5v-134zM995.001 -0.00292969v134
c7.33301 0 12.5 -6.16699 15.5 -18.5s4.5 -28.5 4.5 -48.5c0 -20.667 -1.5 -37 -4.5 -49s-8.16699 -18 -15.5 -18zM445.001 536.997c-8.66699 0 -18.4971 4 -29.4971 12s-20.5 17.5 -28.5 28.5s-12 20.833 -12 29.5c0 9.33301 4 19.333 12 30s17.5 20 28.5 28
s20.833 12 29.5 12c9.33301 0 19.166 -4 29.499 -12s19.666 -17.333 27.999 -28s12.5 -20.667 12.5 -30c0 -8 -4.16699 -17.667 -12.5 -29s-17.833 -21 -28.5 -29s-20.334 -12 -29.001 -12zM612.004 536.997c-8.66699 0 -18.4971 4 -29.4971 12s-20.5 17.5 -28.5 28.5
s-12 20.833 -12 29.5c0 9.33301 4 19.333 12 30s17.5 20 28.5 28s20.833 12 29.5 12c9.33301 0 19.166 -4 29.499 -12s19.666 -17.333 27.999 -28s12.5 -20.667 12.5 -30c0 -8 -4.16699 -17.667 -12.5 -29s-17.833 -21 -28.5 -29s-20.334 -12 -29.001 -12zM528.007 713.997
c-8.66699 0 -18.4971 4 -29.4971 12s-20.5 17.5 -28.5 28.5s-12 20.833 -12 29.5c0 9.33301 4 19.333 12 30s17.5 20 28.5 28s20.833 12 29.5 12c9.33301 0 19.166 -4 29.499 -12s19.666 -17.333 27.999 -28s12.5 -20.667 12.5 -30c0 -8 -4.16699 -17.667 -12.5 -29
s-17.833 -21 -28.5 -29s-20.334 -12 -29.001 -12z" />
    <glyph glyph-name="uniFEBA" unicode="&#x635;" horiz-adv-x="1165" arabic-form="final" 
d="M1079 0v134h86v-134h-86zM960 0l-0.00195312 334.999c-23.333 7.33301 -62 11 -116 11c-86 0 -150.333 -21.333 -193 -64s-64 -107.334 -64 -194.001h-119v382h119v-155c14 33.333 35.833 62.5 65.5 87.5s65.334 44.167 107.001 57.5s86.834 20 135.501 20
c47.333 0 84.333 -4.66699 111 -14s45.5 -25.166 56.5 -47.499s16.5 -53.166 16.5 -92.499v-326h-119zM316.998 -240.001c-52.667 0 -95.501 3.5 -128.501 10.5s-58.5 19.167 -76.5 36.5s-30.333 41.333 -37 72s-10 69.667 -10 117c0 24.667 1 49.667 3 75s5.33301 50 10 74
s10 46.333 16 67l119 -18c-8.66699 -31.333 -15.667 -61.5 -21 -90.5s-8 -56.833 -8 -83.5s0.833008 -49.667 2.5 -69s4.5 -38.333 8.5 -57h157c40.667 0 70.167 3.5 88.5 10.5s27.5 21.167 27.5 42.5v141h119v-102c0 -44.667 -3.5 -81.667 -10.5 -111s-20 -52.5 -39 -69.5
s-46.167 -28.833 -81.5 -35.5s-81.666 -10 -138.999 -10zM535.997 -0.000976562v134h486l57 -134h-543zM1165 -0.000976562v134c7.33301 0 12.5 -6.16699 15.5 -18.5s4.5 -28.5 4.5 -48.5c0 -20.667 -1.5 -37 -4.5 -49s-8.16699 -18 -15.5 -18z" />
    <glyph glyph-name="uniFEBB" unicode="&#x635;" horiz-adv-x="829" arabic-form="initial" 
d="M627 0l-0.000976562 334.999c-23.333 7.33301 -62 11 -116 11c-86 0 -150.333 -21.333 -193 -64s-64 -107.334 -64 -194.001h-119v382h119v-155c14.667 33.333 36.834 62.5 66.501 87.5s65.167 44.167 106.5 57.5s86.666 20 135.999 20
c46.667 0 83.334 -4.66699 110.001 -14s45.5 -25.166 56.5 -47.499s16.5 -53.166 16.5 -92.499v-326h-119zM-0.000976562 -0.000976562v134h746v-134h-746zM-0.000976562 -0.000976562c-7.33301 0 -12.5 6 -15.5 18s-4.5 28.333 -4.5 49c0 20 1.5 36.167 4.5 48.5
s8.16699 18.5 15.5 18.5v-134z" />
    <glyph glyph-name="uniFEBC" unicode="&#x635;" horiz-adv-x="832" arabic-form="medial" 
d="M746 0v134h86v-134h-86zM627 0l-0.000976562 334.999c-23.333 7.33301 -62 11 -116 11c-86 0 -150.333 -21.333 -193 -64s-64 -107.334 -64 -194.001h-119v382h119v-155c14.667 33.333 36.834 62.5 66.501 87.5s65.167 44.167 106.5 57.5s86.666 20 135.999 20
c46.667 0 83.334 -4.66699 110.001 -14s45.5 -25.166 56.5 -47.499s16.5 -53.166 16.5 -92.499v-326h-119zM-0.000976562 -0.000976562v134h746v-134h-746zM-0.000976562 -0.000976562c-7.33301 0 -12.5 6 -15.5 18s-4.5 28.333 -4.5 49c0 20 1.5 36.167 4.5 48.5
s8.16699 18.5 15.5 18.5v-134zM831.999 -0.000976562v134c6.66699 0 11.667 -6.16699 15 -18.5s5 -28.5 5 -48.5c0 -20.667 -1.66699 -37 -5 -49s-8.33301 -18 -15 -18z" />
    <glyph glyph-name="uniFEBE" unicode="&#x636;" horiz-adv-x="1165" arabic-form="final" 
d="M1079 0v134h86v-134h-86zM960 0l-0.00195312 334.999c-23.333 7.33301 -62 11 -116 11c-86 0 -150.333 -21.333 -193 -64s-64 -107.334 -64 -194.001h-119v382h119v-155c14 33.333 35.833 62.5 65.5 87.5s65.334 44.167 107.001 57.5s86.834 20 135.501 20
c47.333 0 84.333 -4.66699 111 -14s45.5 -25.166 56.5 -47.499s16.5 -53.166 16.5 -92.499v-326h-119zM316.998 -240.001c-52.667 0 -95.501 3.5 -128.501 10.5s-58.5 19.167 -76.5 36.5s-30.333 41.333 -37 72s-10 69.667 -10 117c0 24.667 1 49.667 3 75s5.33301 50 10 74
s10 46.333 16 67l119 -18c-8.66699 -31.333 -15.667 -61.5 -21 -90.5s-8 -56.833 -8 -83.5s0.833008 -49.667 2.5 -69s4.5 -38.333 8.5 -57h157c40.667 0 70.167 3.5 88.5 10.5s27.5 21.167 27.5 42.5v141h119v-102c0 -44.667 -3.5 -81.667 -10.5 -111s-20 -52.5 -39 -69.5
s-46.167 -28.833 -81.5 -35.5s-81.666 -10 -138.999 -10zM535.997 -0.000976562v134h486l57 -134h-543zM1165 -0.000976562v134c7.33301 0 12.5 -6.16699 15.5 -18.5s4.5 -28.5 4.5 -48.5c0 -20.667 -1.5 -37 -4.5 -49s-8.16699 -18 -15.5 -18zM828.997 586.999
c-8.66699 0 -18.4971 4 -29.4971 12s-20.5 17.5 -28.5 28.5s-12 20.833 -12 29.5c0 9.33301 4 19.333 12 30s17.5 20 28.5 28s20.833 12 29.5 12c9.33301 0 19.166 -4 29.499 -12s19.666 -17.333 27.999 -28s12.5 -20.667 12.5 -30c0 -8 -4.16699 -17.667 -12.5 -29
s-17.833 -21 -28.5 -29s-20.334 -12 -29.001 -12z" />
    <glyph glyph-name="uniFEBF" unicode="&#x636;" horiz-adv-x="829" arabic-form="initial" 
d="M627 0l-0.000976562 334.999c-23.333 7.33301 -62 11 -116 11c-86 0 -150.333 -21.333 -193 -64s-64 -107.334 -64 -194.001h-119v382h119v-155c14.667 33.333 36.834 62.5 66.501 87.5s65.167 44.167 106.5 57.5s86.666 20 135.999 20
c46.667 0 83.334 -4.66699 110.001 -14s45.5 -25.166 56.5 -47.499s16.5 -53.166 16.5 -92.499v-326h-119zM-0.000976562 -0.000976562v134h746v-134h-746zM-0.000976562 -0.000976562c-7.33301 0 -12.5 6 -15.5 18s-4.5 28.333 -4.5 49c0 20 1.5 36.167 4.5 48.5
s8.16699 18.5 15.5 18.5v-134zM484.999 586.999c-8.66699 0 -18.4971 4 -29.4971 12s-20.5 17.5 -28.5 28.5s-12 20.833 -12 29.5c0 9.33301 4 19.333 12 30s17.5 20 28.5 28s20.833 12 29.5 12c9.33301 0 19.166 -4 29.499 -12s19.666 -17.333 27.999 -28
s12.5 -20.667 12.5 -30c0 -8 -4.16699 -17.667 -12.5 -29s-17.833 -21 -28.5 -29s-20.334 -12 -29.001 -12z" />
    </font>
</defs>
</svg>
